Идеальная пара (Ольга Доброва-Куликова) [2014, Мелодрама, HDTVRip]

Ответить на тему
 
Автор Сообщение

user ®

Стаж: 7 лет 7 месяцев

Сообщений: 20008

Пост Пост: #1 от 03-Янв-2015 16:20

[Цитировать]

Идеальная пара Жанр: Мелодрама, комедия
Год выпуска: 2014
Выпущено: Киностудия Маркес
Продолжительность: 01:29:38
Режиссёр: Ольга Доброва-Куликова
В ролях: Анна Уколова, Андрей Чадов, Ирина Знаменщикова, Александр Никольский (II), Мария Дорогова, Виктор Маркин (II), Ксения Щербакова, Екатерина Варкова
Описание: Зоя – спортсменка с мужским характером. Поэтому сильному полу с ней тяжело, и они от нее сбегают. Но Зоя мечтает выйти замуж и завести детей.
Кеша – холостяк, живет с родителями. Однажды он уходит из дома с намерением жениться на первой встречной. Ей оказывается Зоя, которая решает, что сможет сделать из Кеши идеального мужа. Он предлагает Зое переделать друг друга: день она, день он. Кеша, наконец, находит женщину своей мечты, которая его понимает. А Зоя встречает отличного парня. Однако скоро обнаруживается, что "переделка" не прошла даром...
Качество видео: HDTVRip
Формат видео: AVI
СЭМПЛ
Видео: 688x384 (1.79:1), 25 fps, XviD build 50 ~957 kbps
Аудио: 48 kHz, MPEG Layer 3, 2 ch, ~128.00 kbps
MediaInfo
Format : AVI
Format/Info : Audio Video Interleave
File size : 700 MiB
Duration : 1h 29mn
Overall bit rate : 1 092 Kbps
Writing application : VirtualDubMod 1.5.4.1 (build 2178/release)
Writing library : VirtualDubMod build 2178/release
Video
ID : 0
Format : MPEG-4 Visual
Format profile : Advanced Simple@L5
Format settings, BVOP : 1
Format settings, QPel : No
Format settings, GMC : No warppoints
Format settings, Matrix : Custom
Codec ID : XVID
Codec ID/Hint : XviD
Duration : 1h 29mn
Bit rate : 957 Kbps
Width : 688 pixels
Height : 384 pixels
Display aspect ratio : 16:9
Frame rate : 25.000 fps
Color space : YUV
Chroma subsampling : 4:2:0
Bit depth : 8 bits
Scan type : Progressive
Compression mode : Lossy
Bits/(Pixel*Frame) : 0.145
Stream size : 613 MiB (88%)
Writing library : XviD 1.2.1 (UTC 2008-12-04)
Audio
ID : 1
Format : MPEG Audio
Format version : Version 1
Format profile : Layer 3
Mode : Joint stereo
Mode extension : MS Stereo
Codec ID : 55
Codec ID/Hint : MP3
Duration : 1h 29mn
Bit rate mode : Constant
Bit rate : 128 Kbps
Channel(s) : 2 channels
Sampling rate : 48.0 KHz
Compression mode : Lossy
Stream size : 82.1 MiB (12%)
Alignment : Aligned on interleaves
Interleave, duration : 80 ms (2.00 video frames)
Interleave, preload duration : 504 ms
Writing library : LAME3.98r
Encoding settings : -m j -V 4 -q 2 -lowpass 17 -b 128
Скриншот c названием фильма Скриншоты
Скачать

Скачать торрент!

Как скачивать? · Что такое торрент? · Рейтинг и ограничения

Сайт не распространяет и не хранит электронные версии произведений, а лишь предоставляет доступ к создаваемому пользователями каталогу ссылок на торрент-файлы, которые содержат только списки хеш-сумм

[Профиль] [ЛС]
Показать сообщения:    
Ответить на тему

Текущее время: Сегодня 01:44

Часовой пояс: GMT + 4



Вы не можете начинать темы
Вы не можете отвечать на сообщения
Вы не можете редактировать свои сообщения
Вы не можете удалять свои сообщения
Вы не можете голосовать в опросах
Вы не можете прикреплять файлы к сообщениям
Вы не можете скачивать файлы