Superнянь / Babysitting (Николас Бенаму / Nicolas Benamou, Филипп Лашо / Philippe Lacheau) [2014, Франция, Комедия, BDRip-AVC] Dub + Sub Rus + Original

Ответить на тему
 
Автор Сообщение

user ®

Стаж: 7 лет 7 месяцев

Сообщений: 20008

Пост Пост: #1 от 02-Янв-2015 23:30

[Цитировать]

Superнянь / Babysitting- Страна: Франция / Universal Pictures International (UPI), Axel Films, Madame Films
Жанр: Комедия
Год выпуска: 2014
Продолжительность: 01:24:03
Перевод: Профессиональный (полное дублирование) | iTunes |
Cубтитры: Русские, французкие, французкие (SDH)
Оригинальная аудиодорожка: Французский
Навигация по главам: Есть-Режиссер: Николас Бенаму / Nicolas Benamou, Филипп Лашо / Philippe Lacheau-В ролях: Филипп Лашо, Алиса Давид, Венсан Дезанья, Тарек Будали, Жюльен Аррути, Грегуар Людиг, Давид Марсе, Жерар Жюньо, Клотильда Куро, Филипп Дюкен-Описание: Клэр и Марк уезжают на все выходные, оставив своего сына под присмотром «хорошего парня» Фрэнка. На следующее утро парочку будит звонок полицейского, который сообщает, что их дом перевернут верх дном, а сын исчез! На месте происшествия полиция находит камеру, на которой запечатлены все события предыдущей ночи. Только посмотрев видео родители смогут узнать куда исчез их сын и что случилось в эту ночь… когда Фрэнк праздновал 30-летие.-| IMDB | КиноПоиск | Сэмпл |-Премьера (мир): 16 января 2014
Премьера (РФ): 20 ноября 2014 «Централ Партнершип», «All Media»
Релиз на DVD: 18 декабря 2014 «CD Land»
Бюджет: €4 000 000-Качество видео: BDRip (исходник Blu-ray)
Формат видео: MKV
Видео: x.264, 1060x572 (1,85:1), 23,976 fps, 2881 kbps, 0.198 bit/pixel
Аудио 1: 48 kHz, AC3 Dolby Digital, 3/2 (L,C,R,l,r) + LFE ch, 384.00 kbps | Russian | iTunes
Аудио 2: 48 kHz, AC3 Dolby Digital, 3/2 (L,C,R,l,r) + LFE ch, 448.00 kbps | French |-

Релиз группы: HELLYWOOD
Автор рипа: potroks

MediaInfo
General
Unique ID : 229802351015463378715624543727262303519 (0xACE252AA4DB8E101AA06894EC5B7051F)
Complete name : D:\FILMS\Supernyan'.2014.DUAL.BDRip.x264.-HELLYWOOD.mkv
Format : Matroska
Format version : Version 4 / Version 2
File size : 2.18 GiB
Duration : 1h 24mn
Overall bit rate : 3 715 Kbps
Movie name : Babysitting (2014) - HELLYWOOD
Encoded date : UTC 2014-12-30 16:43:34
Writing application : mkvmerge v5.9.0 ('On The Loose') built on Dec 15 2012 16:39:58
Writing library : libebml v1.3.0 + libmatroska v1.4.0
Video
ID : 1
Format : AVC
Format/Info : Advanced Video Codec
Format profile : High@L4.1
Format settings, CABAC : Yes
Format settings, ReFrames : 10 frames
Codec ID : V_MPEG4/ISO/AVC
Duration : 1h 24mn
Bit rate : 2 881 Kbps
Width : 1 060 pixels
Height : 572 pixels
Display aspect ratio : 1.85:1
Frame rate mode : Constant
Frame rate : 23.976 fps
Color space : YUV
Chroma subsampling : 4:2:0
Bit depth : 8 bits
Scan type : Progressive
Bits/(Pixel*Frame) : 0.198
Stream size : 1.65 GiB (76%)
Title : potroks
Writing library : x264 core 130 r2273 b3065e6
Encoding settings : cabac=1 / ref=10 / deblock=1:-2:-2 / analyse=0x3:0x133 / me=umh / subme=11 / psy=1 / psy_rd=1.02:0.05 / mixed_ref=1 / me_range=48 / chroma_me=1 / trellis=2 / 8x8dct=1 / cqm=0 / deadzone=21,11 / fast_pskip=0 / chroma_qp_offset=-3 / threads=9 / lookahead_threads=6 / sliced_threads=0 / nr=0 / decimate=0 / interlaced=0 / bluray_compat=0 / constrained_intra=0 / bframes=11 / b_pyramid=2 / b_adapt=2 / b_bias=0 / direct=3 / weightb=1 / open_gop=0 / weightp=2 / keyint=250 / keyint_min=23 / scenecut=40 / intra_refresh=0 / rc_lookahead=60 / rc=2pass / mbtree=0 / bitrate=2881 / ratetol=1.0 / qcomp=0.70 / qpmin=0 / qpmax=69 / qpstep=4 / cplxblur=20.0 / qblur=0.5 / vbv_maxrate=50000 / vbv_bufsize=62500 / nal_hrd=none / ip_ratio=1.35 / pb_ratio=1.25 / aq=1:0.80
Language : English
Default : Yes
Forced : No
Audio #1
ID : 2
Format : AC-3
Format/Info : Audio Coding 3
Mode extension : CM (complete main)
Format settings, Endianness : Big
Codec ID : A_AC3
Duration : 1h 24mn
Bit rate mode : Constant
Bit rate : 384 Kbps
Channel(s) : 6 channels
Channel positions : Front: L C R, Side: L R, LFE
Sampling rate : 48.0 KHz
Bit depth : 16 bits
Compression mode : Lossy
Stream size : 231 MiB (10%)
Title : Dub | DD 5.1 @ 384 kbps - iTunes
Language : Russian
Default : Yes
Forced : No
Audio #2
ID : 3
Format : AC-3
Format/Info : Audio Coding 3
Mode extension : CM (complete main)
Format settings, Endianness : Big
Codec ID : A_AC3
Duration : 1h 24mn
Bit rate mode : Constant
Bit rate : 448 Kbps
Channel(s) : 6 channels
Channel positions : Front: L C R, Side: L R, LFE
Sampling rate : 48.0 KHz
Bit depth : 16 bits
Compression mode : Lossy
Stream size : 269 MiB (12%)
Title : Original | DD 5.1 @ 448 kbps
Language : French
Default : No
Forced : No
Text #1
ID : 4
Format : UTF-8
Codec ID : S_TEXT/UTF8
Codec ID/Info : UTF-8 Plain Text
Language : Russian
Default : No
Forced : No
Text #2
ID : 5
Format : UTF-8
Codec ID : S_TEXT/UTF8
Codec ID/Info : UTF-8 Plain Text
Language : French
Default : No
Forced : No
Text #3
ID : 6
Format : UTF-8
Codec ID : S_TEXT/UTF8
Codec ID/Info : UTF-8 Plain Text
Title : SDH
Language : French
Default : No
Forced : No
Menu
00:00:00.000 : en:(01)00:00:00:000
00:05:06.389 : en:(02)00:05:06:389
00:08:33.763 : en:(03)00:08:33:763
00:12:35.129 : en:(04)00:12:35:129
00:16:14.223 : en:(05)00:16:14:223
00:19:16.196 : en:(06)00:19:16:196
00:25:00.707 : en:(07)00:25:00:707
00:30:43.800 : en:(08)00:30:43:800
00:34:40.620 : en:(09)00:34:40:620
00:39:10.222 : en:(10)00:39:10:222
00:44:48.519 : en:(11)00:44:48:519
00:48:36.622 : en:(12)00:48:36:622
00:52:12.379 : en:(13)00:52:12:379
00:57:19.853 : en:(14)00:57:19:853
00:59:41.744 : en:(15)00:59:41:744
01:02:33.040 : en:(16)01:02:33:040
01:08:12.671 : en:(17)01:08:12:671
01:12:18.250 : en:(18)01:12:18:250
01:15:11.673 : en:(19)01:15:11:673
01:20:09.679 : en:(20)01:20:09:679
01:24:03.580 : en:(21)01:24:03:580
Скриншот c названием фильма Скриншоты
Скачать

Скачать торрент!

Как скачивать? · Что такое торрент? · Рейтинг и ограничения

Сайт не распространяет и не хранит электронные версии произведений, а лишь предоставляет доступ к создаваемому пользователями каталогу ссылок на торрент-файлы, которые содержат только списки хеш-сумм

[Профиль] [ЛС]
Показать сообщения:    
Ответить на тему

Текущее время: Сегодня 06:24

Часовой пояс: GMT + 4



Вы не можете начинать темы
Вы не можете отвечать на сообщения
Вы не можете редактировать свои сообщения
Вы не можете удалять свои сообщения
Вы не можете голосовать в опросах
Вы не можете прикреплять файлы к сообщениям
Вы не можете скачивать файлы