Фальшивая леди / False lady / Ai ye nu peng you (Лау Чан / Lau Chan) [1992, Китай, Гонконг, эротика, комедия, фэнтези, DVDRip] VO [Ghostface]

Ответить на тему
 
Автор Сообщение

user ®

Стаж: 13 лет

Сообщений: 15071

Пост Пост: #1 от 02-Янв-2015 20:20

[Цитировать]

Фальшивая леди / False lady / Ai ye nu peng you- -Страна: Китай, Гонконг
Жанр: эротика, комедия, фэнтези
Год выпуска: 1992
Продолжительность: 01:30:30-Перевод: Одноголосый закадровый [Ghostface]-Cубтитры: китайские, английские [вшитые]
Оригинальная аудиодорожка: нет
Режиссер: Лау Чан / Lau Chan
В ролях: Хон Чай, Джи Хунг Чан, Кин Ят Чан, Чарли Чо, Хунг Чун, Пак-Квон Хо, Линг Га, Вэй Жан Гу...
Описание: История о том, как человеку, которого убили, приказывают вернуться на Землю. Но его тело только что кремировали, и он вселяется в тело девушки...
Релиз от -
Сэмпл: http://multi-up.com/1024060
Качество видео: DVDRip
Формат видео: AVI
Видео: MPEG-4 Visual at 2111 Кбит/сек; 720 x 432 (1.667) at 23.976 fps
Аудио: AC-3 at 192 Кбит/сек; 2 канала, 48,0 КГц
Автор -
MediaInfo
Общее
Полное имя : D:\Фильмы\Азиатские\Фальшивая леди\False lady.1992.DVDRip.XviD.1400MB. rip by [Assassin's Creed].avi
Формат : AVI
Формат/Информация : Audio Video Interleave
Размер файла : 1,46 Гбайт
Продолжительность : 1 ч. 30 м.
Общий поток : 2312 Кбит/сек
Программа кодирования : VirtualDubMod 1.5.10.3 | www.virtualdub-fr.org || (build 2550/release)
Библиотека кодирования : VirtualDubMod build 2550/release
Видео
Идентификатор : 0
Формат : MPEG-4 Visual
Профиль формата : Advanced Simple@L5
Параметр BVOP формата : 1
Параметр QPel формата : Нет
Параметр GMC формата : Без точки перехода
Параметр матрицы формата : Default (MPEG)
Идентификатор кодека : XVID
Идентификатор кодека/Подсказка : XviD
Продолжительность : 1 ч. 30 м.
Битрейт : 2111 Кбит/сек
Ширина : 720 пикселей
Высота : 432 пикселя
Соотношение сторон : 1,667
Частота кадров : 23,976 кадра/сек
Цветовое пространство : YUV
Субдискретизация насыщенности : 4:2:0
Битовая глубина : 8 бит
Тип развёртки : Прогрессивная
Метод сжатия : С потерями
Бит/(Пиксели*Кадры) : 0.283
Размер потока : 1,33 Гбайт (91%)
Библиотека кодирования : XviD 1.2.1 (UTC 2008-12-04)
Аудио
Идентификатор : 1
Формат : AC-3
Формат/Информация : Audio Coding 3
Расширение режима : CM (complete main)
Параметр Endianness формата : Big
Идентификатор кодека : 2000
Продолжительность : 1 ч. 30 м.
Вид битрейта : Постоянный
Битрейт : 192 Кбит/сек
Каналы : 2 канала
Расположение каналов : Front: L R
Частота : 48,0 КГц
Битовая глубина : 16 бит
Метод сжатия : С потерями
Размер потока : 124 Мбайт (8%)
Выравнивание : Разделение по промежуткам
Продолжительность промежутка : 42 мс. (1,00 видеокадр)
Время предзагрузки промежутка : 500 мс.
Скриншот c названием фильма Скриншоты
Скачать

Скачать торрент! Фальшивая леди / False lady / Ai ye nu peng you (Лау Чан / Lau Chan) [1992, Китай, Гонконг, эротика, комедия, фэнтези, DVDRip] VO [Ghostface]

Как скачивать? · Что такое торрент? · Рейтинг и ограничения

Сайт не распространяет и не хранит электронные версии произведений, а лишь предоставляет доступ к создаваемому пользователями каталогу ссылок на торрент-файлы, которые содержат только списки хеш-сумм

[Профиль] [ЛС]
Показать сообщения:    
Ответить на тему

Текущее время: Сегодня 16:03

Часовой пояс: GMT + 4



Вы не можете начинать темы
Вы не можете отвечать на сообщения
Вы не можете редактировать свои сообщения
Вы не можете удалять свои сообщения
Вы не можете голосовать в опросах
Вы не можете прикреплять файлы к сообщениям
Вы не можете скачивать файлы