Сыскное бюро "Феликс" (Владимир Лаптев (II)) [1993, Детектив, комедия, DVB]

Ответить на тему
 
Автор Сообщение

user ®

Стаж: 7 лет 7 месяцев

Сообщений: 20008

Пост Пост: #1 от 01-Янв-2015 19:00

[Цитировать]

Сыскное бюро "Феликс"
Жанр: Детектив, комедия
Год выпуска: 1993
Продолжительность: 1:25:33
Режиссёр: Владимир Лаптев (II)
В ролях: Андрей Соколов, Мария Голубкина, Игорь Дмитриев, Наталья Крачковская, Владимир Ивашов, Александра Захарова, Евгений Леонов, Вячеслав Кириличев, Павел Дралов, Владимир Суворов
Описание: Молодой аспирант Плещеев из большой любви к Ларисе берет на себя ее вину за кражу дипломата с долларами у иностранца. Отсидев, он возвращается к своей любимой, но та, построив на ворованные деньги собственную коммерческую фирму, отвергает Плещеева. Он ищет способ вернуть ее любовь и не находит ничего лучшего как украсть у нее самое дорогое - любимого песика, за возврат которого она готова на все. Так, случайно, в голове Ларисы зарождается идея - открыть новый своеобразный бизнес - воровать дорогих породистых собак у обожающих их хозяев и самим же их и находить за большое вознаграждение, а во главе этого бизнеса поставить Плещеева. Все было бы так просто, если бы не Настя...
Доп. информация: Производство: ТО "Евразия" Свердловская киностудия
Сэмпл: https://www.sendspace.com/file/oamyee
Качество видео: DVB
Формат видео: MPEG-PS
Видео: MPEG Video , 720x576(4:3), 25,000 кадров/сек, 3284 Kbps
Аудио: MPEG Audio, 48,0 КГц, 192 Кбит/сек, 2 канала
MediaInfo
Complete name Сыскное бюро Феликс 1993.mpg
Format : MPEG-PS
File size : 2.12 GiB
Duration : 1h 25mn
Overall bit rate mode : Variable
Overall bit rate : 3 546 Kbps
Video
ID : 224 (0xE0)
Format : MPEG Video
Format version : Version 2
Format profile : Main@Main
Format settings, BVOP : Yes
Format settings, Matrix : Custom
Format settings, GOP : M=4, N=32
Format settings, picture st : Frame
Duration : 1h 25mn
Bit rate mode : Variable
Bit rate : 3 284 Kbps
Maximum bit rate : 15.0 Mbps
Width : 720 pixels
Height : 576 pixels
Display aspect ratio : 4:3
Frame rate : 25.000 fps
Standard : PAL
Color space : YUV
Chroma subsampling : 4:2:0
Bit depth : 8 bits
Scan type : Interlaced
Scan order : Top Field First
Compression mode : Lossy
Bits/(Pixel*Frame) : 0.317
Time code of first frame : 00:11:34:00
Time code source : Group of pictures header
GOP, Open/Closed : Open
Stream size : 1.96 GiB (93%)
Audio
ID : 192 (0xC0)
Format : MPEG Audio
Format version : Version 1
Format profile : Layer 2
Duration : 1h 25mn
Bit rate mode : Constant
Bit rate : 192 Kbps
Channel(s) : 2 channels
Sampling rate : 48.0 KHz
Compression mode : Lossy
Delay relative to video : -67ms
Stream size : 118 MiB (5%)
Menu
Скриншот c названием фильма Скриншоты
Скачать

Скачать торрент!

Как скачивать? · Что такое торрент? · Рейтинг и ограничения

Сайт не распространяет и не хранит электронные версии произведений, а лишь предоставляет доступ к создаваемому пользователями каталогу ссылок на торрент-файлы, которые содержат только списки хеш-сумм

[Профиль] [ЛС]
Показать сообщения:    
Ответить на тему

Текущее время: Сегодня 11:41

Часовой пояс: GMT + 4



Вы не можете начинать темы
Вы не можете отвечать на сообщения
Вы не можете редактировать свои сообщения
Вы не можете удалять свои сообщения
Вы не можете голосовать в опросах
Вы не можете прикреплять файлы к сообщениям
Вы не можете скачивать файлы