Джива / Jeeva (Сусиндиран / Suseenthiran) [2014, Индия, Драма, DVDRip] + Sub Rus

Ответить на тему
 
Автор Сообщение

user ®

Стаж: 12 лет

Сообщений: 15092

Пост Пост: #1 от 01-Янв-2015 15:50

[Цитировать]

Джива / Jeeva Страна: Индия
Жанр: Драма
Год выпуска: 2014
Продолжительность: 02:05:45
Перевод: Субтитры
Cубтитры: русские
Релиз-группа: Bee Movie
Перевод субтитров: Ратюся (Ма-Рати)
Оригинальная аудиодорожка: Тамильский
Режиссер: Сусиндиран / Suseenthiran
В ролях: Вишну Вишал, Шридивья, Сури, Лакшман Нараян
Описание: У каждого человека есть мечта. Глубоко в сердце она согревает его, поселяя надежду. Есть те, кто прячет её от чужих глаз, и те, кто изо всех сил стараются воплотить её в реальность, не жалея своих сил. Таким был и Джива. С самого детства он жил лишь мечтой о крикете, и в своих стремлениях не отступал ни перед чем. Удача, казалось, сама нашла его, несмотря на все трудности, и подарила шанс на великое будущее.. но так ли безмятежен будет его путь? Сможет ли заветная мечта пробиться сквозь зависть соперников и непонимание близких? И как сохранить в себе силы двигаться дальше, если пути назад уже нет.. Sima Kivi (с)
Сэмпл: http://multi-up.com/1023511
Качество видео: DVDRip
Формат видео: AVI
Видео: XviD, 720x304 pixel, 24 fps, 1105 kbps
Аудио: AC3, 44.1 kHz, 2.0 (stereo), 448 kbps
Формат субтитров: hardsub (неотключаемые)
MediaInfo
I:\кино - Индия\Dzhiva.2014.DVDRip.XviD.Bee.Movie.avi
General
Complete name : I:\кино - Индия\Dzhiva.2014.DVDRip.XviD.Bee.Movie.avi
Format : AVI
Format/Info : Audio Video Interleave
File size : 1.37 GiB
Duration : 2h 5mn
Overall bit rate : 1 562 Kbps
Writing application : VirtualDubMod 1.5.10.3 | www.virtualdub-fr.org || (build 2550/release)
Writing library : VirtualDubMod build 2550/release
Video #0
ID : 0
Format : MPEG-4 Visual
Format profile : Advanced Simple@L5
Format settings, BVOP : 1
Format settings, QPel : No
Format settings, GMC : No warppoints
Format settings, Matrix : Default (MPEG)
Codec ID : DX50
Codec ID/Hint : DivX 5
Duration : 2h 5mn
Bit rate : 1 105 Kbps
Width : 720 pixels
Height : 304 pixels
Display aspect ratio : 2.35:1
Frame rate : 24.000 fps
Color space : YUV
Chroma subsampling : 4:2:0
Bit depth : 8 bits
Scan type : Progressive
Compression mode : Lossy
Bits/(Pixel*Frame) : 0.210
Stream size : 994 MiB (71%)
Writing library : XviD 1.2.1 (UTC 2008-12-04)
Audio #1
ID : 1
Format : AC-3
Format/Info : Audio Coding 3
Mode extension : CM (complete main)
Codec ID : 2000
Duration : 2h 5mn
Bit rate mode : Constant
Bit rate : 448 Kbps
Channel(s) : 2 channels
Channel positions : Front: L R
Sampling rate : 44.1 KHz
Bit depth : 16 bits
Compression mode : Lossy
Stream size : 403 MiB (29%)
Alignment : Split accross interleaves
Interleave, duration : 42 ms (1.00 video frame)
Interleave, preload duration : 500 ms
Скриншот c названием фильма Скриншоты
Скачать

Скачать торрент! Джива / Jeeva (Сусиндиран / Suseenthiran) [2014, Индия, Драма, DVDRip] + Sub Rus

Как скачивать? · Что такое торрент? · Рейтинг и ограничения

Сайт не распространяет и не хранит электронные версии произведений, а лишь предоставляет доступ к создаваемому пользователями каталогу ссылок на торрент-файлы, которые содержат только списки хеш-сумм

[Профиль] [ЛС]
Показать сообщения:    
Ответить на тему

Текущее время: Сегодня 16:31

Часовой пояс: GMT + 4



Вы не можете начинать темы
Вы не можете отвечать на сообщения
Вы не можете редактировать свои сообщения
Вы не можете удалять свои сообщения
Вы не можете голосовать в опросах
Вы не можете прикреплять файлы к сообщениям
Вы не можете скачивать файлы