Девять жизней Рождества / The Nine Lives Of Christmas (Марк Джин / Mark Jean) [2014, США, Комедия, мелодрама, HDTVRip-AVC] Sub Rus + Original Eng

Ответить на тему
 
Автор Сообщение

user ®

Стаж: 7 лет 7 месяцев

Сообщений: 20008

Пост Пост: #1 от 01-Янв-2015 15:50

[Цитировать]

Девять жизней Рождества / The Nine Lives Of Christmas
Страна: США
Жанр: Комедия, мелодрама
Год выпуска: 2014
Продолжительность: 01:23:52
Перевод: Субтитры Ron.Studio™
Cубтитры: русские
Оригинальная аудиодорожка: английский
Режиссер: Марк Джин / Mark Jean
В ролях: Брэндон Роу, Кимберли Састад, Стефани Беннет, Челси Хобс и другие.
Описание: После того, как бездомный кот поселяется в доме Закари, начинаются рождественские приключения двух молодых людей, которые в силу обстоятельств думают, что не готовы влюбиться.
Сэмпл: http://multi-up.com/1023590
Качество видео: HDTVRip-AVC
Формат видео: MKV
Видео: AVC, 1280x720, 16:9, 29.97fps, 3730 Kbps
Аудио: AC-3, 48 KHz, 192 Kbps, 2 ch
MediaInfo
General
Unique ID : 239709186352063745583827857836145354790 (0xB4564F5BC487F35488CC2D560B53A826)
Complete name : H:\ФИЛЬМЫ\Девять жизней Рождества\Девять жизней Рождества.2014.720p.mkv
Format : Matroska
Format version : Version 2
File size : 2.30 GiB
Duration : 1h 23mn
Overall bit rate : 3 922 Kbps
Encoded date : UTC 2014-12-30 12:44:05
Writing application : mkvmerge v5.2.1 ('A Far Off Place') built on Jan 2 2012 23:21:10
Writing library : libebml v1.2.3 + libmatroska v1.3.0
Video
ID : 1
Format : AVC
Format/Info : Advanced Video Codec
Format profile : Main@L3.1
Format settings, CABAC : Yes
Format settings, ReFrames : 4 frames
Muxing mode : Header stripping
Codec ID : V_MPEG4/ISO/AVC
Duration : 1h 23mn
Bit rate : 3 729 Kbps
Width : 1 280 pixels
Height : 720 pixels
Display aspect ratio : 16:9
Frame rate mode : Constant
Frame rate : 29.970 fps
Color space : YUV
Chroma subsampling : 4:2:0
Bit depth : 8 bits
Scan type : Progressive
Bits/(Pixel*Frame) : 0.135
Stream size : 2.14 GiB (93%)
Writing library : x264 core 112
Encoding settings : cabac=1 / ref=2 / deblock=1:0:0 / analyse=0x1:0x111 / me=hex / subme=6 / psy=1 / psy_rd=1.00:0.00 / mixed_ref=0 / me_range=16 / chroma_me=1 / trellis=0 / 8x8dct=0 / cqm=0 / deadzone=21,11 / fast_pskip=1 / chroma_qp_offset=-2 / threads=12 / sliced_threads=0 / nr=0 / decimate=1 / interlaced=0 / constrained_intra=0 / bframes=2 / b_pyramid=2 / b_adapt=1 / b_bias=0 / direct=1 / weightb=0 / open_gop=0 / weightp=2 / keyint=300 / keyint_min=29 / scenecut=40 / intra_refresh=0 / rc_lookahead=40 / rc=2pass / mbtree=1 / bitrate=3729 / ratetol=1.0 / qcomp=0.60 / qpmin=3 / qpmax=51 / qpstep=4 / cplxblur=20.0 / qblur=0.5 / ip_ratio=1.40 / aq=1:1.00
Language : English
Default : Yes
Forced : No
Color primaries : BT.709
Transfer characteristics : BT.709
Matrix coefficients : BT.709
Audio
ID : 2
Format : AC-3
Format/Info : Audio Coding 3
Mode extension : CM (complete main)
Format settings, Endianness : Big
Muxing mode : Header stripping
Codec ID : A_AC3
Duration : 1h 23mn
Bit rate mode : Constant
Bit rate : 192 Kbps
Channel count : 2 channels
Channel positions : Front: L R
Sampling rate : 48.0 KHz
Bit depth : 16 bits
Compression mode : Lossy
Stream size : 115 MiB (5%)
Default : Yes
Forced : No
Text
ID : 3
Format : UTF-8
Codec ID : S_TEXT/UTF8
Codec ID/Info : UTF-8 Plain Text
Language : Russian
Default : Yes
Forced : No
Скриншот c названием фильма
Скриншоты


Скачать

Скачать торрент!

Как скачивать? · Что такое торрент? · Рейтинг и ограничения

Сайт не распространяет и не хранит электронные версии произведений, а лишь предоставляет доступ к создаваемому пользователями каталогу ссылок на торрент-файлы, которые содержат только списки хеш-сумм

[Профиль] [ЛС]
Показать сообщения:    
Ответить на тему

Текущее время: Сегодня 12:11

Часовой пояс: GMT + 4



Вы не можете начинать темы
Вы не можете отвечать на сообщения
Вы не можете редактировать свои сообщения
Вы не можете удалять свои сообщения
Вы не можете голосовать в опросах
Вы не можете прикреплять файлы к сообщениям
Вы не можете скачивать файлы