Олли и сокровища пиратов / Dive Olly Dive and the Pirate Treasure (Боб Дусетте / Bob Doucette, Гари Херст / Gary Hurst, Боб Бакстер / Bob Baxter) [2014, США, мультфильм, семейный, детский, DVDRip] DUB + Original Eng

Ответить на тему
 
Автор Сообщение

user ®

Стаж: 12 лет

Сообщений: 15145

Пост Пост: #1 от 31-Дек-2014 16:45

[Цитировать]

Олли и сокровища пиратов / Dive Olly Dive and the Pirate Treasure -Страна: США / MoonScoop
Жанр: мультфильм, семейный, детский
Год выпуска: 2014
Продолжительность: 01:16:43
Перевод: Профессиональный (дублированный)
Оригинальная аудиодорожка: Английский
Cубтитры: нет
Режиссер: Боб Дусетте / Bob Doucette, Гари Херст / Gary Hurst, Боб Бакстер / Bob Baxter
В ролях: Шон-Райан Петерсен
Роли дублировали: Айза Долматова, Алёна Водонаева, Ксения Бородина
Описание: К подводным лодкам Олли и Бэт присоединяется их друг Бобси, который совершенно убежден, что является потомком «Пи-Ратов» — давних искателей легендарного клада. Их путешествие за сокровищем наполнено чудесами, приключениями и, конечно, юмором, потому что по пятам за ним следует банда Красных Морских Коньков под предводительством интеллигентной, но крайне опасной Акулы… Но даже это не смогло остановить наших героев! Олли, Бэт и Бобси переживут сильный шторм, преодолеют все препятствия и в конце концов смогут найти клад!

Качество: DVDRip / DVD5
Формат: AVI
Видео: 720x400 (1.80:1), 25 fps, XviD build 73 ~1812 kbps avg, 0.25 bit/pixel
Аудио 1: Russian: 48 kHz, AC3 Dolby Digital, 3/2 (L,C,R,l,r) + LFE ch, ~448 kbps
Аудио 2: English: 48 kHz, AC3 Dolby Digital, 3/2 (L,C,R,l,r) + LFE ch, ~448 kbps

MediaInfo
GeneralComplete name : Olli.i.sokrovisha.piratov.2014.D.DVDRip_Olu6ka.aviFormat : AVIFormat/Info : Audio Video InterleaveFile size : 1.46 GiBDuration : 1h 16mnOverall bit rate : 2 724 KbpsWriting application : VirtualDubModRus 1.5.10.2 (build 2542/release)Writing library : VirtualDubMod build 2542/release
VideoID : 0Format : MPEG-4 VisualFormat profile : Advanced Simple@L5Format settings, BVOP : 1Format settings, QPel : NoFormat settings, GMC : No warppointsFormat settings, Matrix : CustomCodec ID : XVIDCodec ID/Hint : XviDDuration : 1h 16mnBit rate : 1 814 KbpsWidth : 720 pixelsHeight : 400 pixelsDisplay aspect ratio : 16:9Frame rate : 25.000 fpsColor space : YUVChroma subsampling : 4:2:0Bit depth : 8 bitsScan type : ProgressiveCompression mode : LossyBits/(Pixel*Frame) : 0.252Stream size : 995 MiB (67%)Writing library : XviD 73
Audio #1ID : 1Format : AC-3Format/Info : Audio Coding 3Mode extension : CM (complete main)Format settings, Endianness : BigCodec ID : 2000Duration : 1h 16mnBit rate mode : ConstantBit rate : 448 KbpsChannel count : 6 channelsChannel positions : Front: L C R, Side: L R, LFESampling rate : 48.0 KHzBit depth : 16 bitsCompression mode : LossyStream size : 246 MiB (16%)Alignment : Split accross interleaves
Скриншоты: Спасибо Ibraghim за DVD!Релиз от группы
Скачать

Скачать торрент! Олли и сокровища пиратов / Dive Olly Dive and the Pirate Treasure (Боб Дусетте / Bob Doucette, Гари Херст / Gary Hurst, Боб Бакстер / Bob Baxter) [2014, США, мультфильм, семейный, детский, DVDRip] DUB + Original Eng

Как скачивать? · Что такое торрент? · Рейтинг и ограничения

Сайт не распространяет и не хранит электронные версии произведений, а лишь предоставляет доступ к создаваемому пользователями каталогу ссылок на торрент-файлы, которые содержат только списки хеш-сумм

[Профиль] [ЛС]
Показать сообщения:    
Ответить на тему

Текущее время: Сегодня 20:57

Часовой пояс: GMT + 4



Вы не можете начинать темы
Вы не можете отвечать на сообщения
Вы не можете редактировать свои сообщения
Вы не можете удалять свои сообщения
Вы не можете голосовать в опросах
Вы не можете прикреплять файлы к сообщениям
Вы не можете скачивать файлы