Типа копы / Let\'s Be Cops (Люк Гринфилд / Luke Greenfield) [2014, США, Комедия, HDRip-AVC] Dub ([iTunes]) + Sub Rus

Ответить на тему
 
Автор Сообщение

user ®

Стаж: 7 лет 7 месяцев

Сообщений: 20008

Пост Пост: #1 от 31-Дек-2014 06:05

[Цитировать]

Типа копы / Let's Be Cops
Страна: США
Жанр: Комедия
Год выпуска: 2014
Продолжительность: 01:44:28
Перевод: Профессиональный (дублированный) [iTunes]
Cубтитры: Russian, English
Режиссер: Люк Гринфилд / Luke Greenfield
В ролях: Дэймон Уайанс мл., Джейк Джонсон, Роб Риггл, Нина Добрев, Джеймс Д’Арси, Энди Гарсиа, Кигэн-Майкл Ки, Джон Лажуа, Том Мардиросян, Наташа Леггеро
Описание: Получив приглашение на костюмированную вечеринку, два нерадивых приятеля решают нарядиться полицейскими, и вдруг их популярность среди гостей подскакивает до максимума. На волне успеха парни продолжают игру. Но неожиданно псевдокопы оказываются впутанными в реальную криминальную историю, и теперь им придется применить свои фальшивые значки по полной.

Качество видео: HDRip-AVC
Формат видео: MKV
Видео: AVC, 1024x552 (1.855), 23.976 fps, 2 638 Kbps (0.189 bit/pixel)
Аудио 1: AC-3, 48.0 KHz, 6 ch, 448 Kbps, CBR|Russian|
Аудио 2: AC-3, 48.0 KHz, 6 ch, 448 Kbps, CBR|Ukrainian|
Аудио 3: AC-3, 48.0 KHz, 6 ch, 448 Kbps, CBR|English|
Формат субтитров: softsub (SRT)
MediaInfo
I:\Видео\Кино\Lets.Be.Cops.2014.HDRip-AVC.mkv
General
Unique ID : 196041227384271486362184400268982307781 (0x937C2AC185191248BE68FD3AD7554BC5)
Complete name : I:\Видео\Кино\Lets.Be.Cops.2014.HDRip-AVC.mkv
Format : Matroska
Format version : Version 2
File size : 2.91 GiB
Duration : 1h 44mn
Overall bit rate : 3 983 Kbps
Encoded date : UTC 2014-11-21 12:05:07
Writing application : mkvmerge v7.0.0 ('Where We Going') 32bit built on Jun 9 2014 15:08:34
Writing library : libebml v1.3.0 + libmatroska v1.4.1
DURATION : 01:42:25.526000000
NUMBER_OF_FRAMES : 2077
NUMBER_OF_BYTES : 63473
_STATISTICS_WRITING_APP : mkvmerge v7.0.0 ('Where We Going') 32bit built on Jun 9 2014 15:08:34
_STATISTICS_WRITING_DATE_UTC : 2014-11-21 12:05:07
_STATISTICS_TAGS : BPS DURATION NUMBER_OF_FRAMES NUMBER_OF_BYTES
Video #1
ID : 1
Format : AVC
Format/Info : Advanced Video Codec
Format profile : High@L4.0
Format settings, CABAC : Yes
Format settings, ReFrames : 10 frames
Codec ID : V_MPEG4/ISO/AVC
Duration : 1h 44mn
Bit rate : 2 638 Kbps
Width : 1 024 pixels
Height : 552 pixels
Display aspect ratio : 1.855
Frame rate : 23.976 fps
Color space : YUV
Chroma subsampling : 4:2:0
Bit depth : 8 bits
Scan type : Progressive
Bits/(Pixel*Frame) : 0.195
Stream size : 1.87 GiB (64%)
Writing library : x264 core 142 r2431 ac76440
Encoding settings : cabac=1 / ref=10 / deblock=1:-2:-1 / analyse=0x3:0x133 / me=umh / subme=9 / psy=0 / mixed_ref=1 / me_range=24 / chroma_me=1 / trellis=2 / 8x8dct=1 / cqm=0 / deadzone=21,11 / fast_pskip=0 / chroma_qp_offset=0 / threads=12 / lookahead_threads=1 / sliced_threads=0 / nr=0 / decimate=0 / interlaced=0 / bluray_compat=0 / constrained_intra=0 / bframes=3 / b_pyramid=2 / b_adapt=2 / b_bias=0 / direct=3 / weightb=1 / open_gop=0 / weightp=2 / keyint=240 / keyint_min=23 / scenecut=40 / intra_refresh=0 / rc_lookahead=60 / rc=2pass / mbtree=1 / bitrate=2638 / ratetol=1.0 / qcomp=0.60 / qpmin=10 / qpmax=69 / qpstep=4 / cplxblur=20.0 / qblur=0.5 / ip_ratio=1.40 / aq=1:1.00
Audio #2
ID : 2
Format : AC-3
Format/Info : Audio Coding 3
Mode extension : CM (complete main)
Codec ID : A_AC3
Duration : 1h 44mn
Bit rate mode : Constant
Bit rate : 448 Kbps
Channel(s) : 6 channels
Channel positions : Front: L C R, Side: L R, LFE
Sampling rate : 48.0 KHz
Bit depth : 16 bits
Compression mode : Lossy
Stream size : 335 MiB (11%)
Language : Russian
Audio #3
ID : 3
Format : AC-3
Format/Info : Audio Coding 3
Mode extension : CM (complete main)
Codec ID : A_AC3
Duration : 1h 44mn
Bit rate mode : Constant
Bit rate : 448 Kbps
Channel(s) : 6 channels
Channel positions : Front: L C R, Side: L R, LFE
Sampling rate : 48.0 KHz
Bit depth : 16 bits
Compression mode : Lossy
Stream size : 335 MiB (11%)
Language : Ukrainian
Audio #4
ID : 4
Format : AC-3
Format/Info : Audio Coding 3
Mode extension : CM (complete main)
Codec ID : A_AC3
Duration : 1h 44mn
Bit rate mode : Constant
Bit rate : 448 Kbps
Channel(s) : 6 channels
Channel positions : Front: L C R, Side: L R, LFE
Sampling rate : 48.0 KHz
Bit depth : 16 bits
Compression mode : Lossy
Stream size : 335 MiB (11%)
Language : English
Text #5
ID : 5
Format : UTF-8
Codec ID : S_TEXT/UTF8
Codec ID/Info : UTF-8 Plain Text
Title : Full
Language : Russian
Text #6
ID : 6
Format : UTF-8
Codec ID : S_TEXT/UTF8
Codec ID/Info : UTF-8 Plain Text
Title : Full
Language : English
Скриншот c названием фильма Скриншоты
Скачать

Скачать торрент!

Как скачивать? · Что такое торрент? · Рейтинг и ограничения

Сайт не распространяет и не хранит электронные версии произведений, а лишь предоставляет доступ к создаваемому пользователями каталогу ссылок на торрент-файлы, которые содержат только списки хеш-сумм

[Профиль] [ЛС]
Показать сообщения:    
Ответить на тему

Текущее время: Сегодня 17:45

Часовой пояс: GMT + 4



Вы не можете начинать темы
Вы не можете отвечать на сообщения
Вы не можете редактировать свои сообщения
Вы не можете удалять свои сообщения
Вы не можете голосовать в опросах
Вы не можете прикреплять файлы к сообщениям
Вы не можете скачивать файлы