Бегущий в лабиринте / The Maze Runner (Уэс Болл / Wes Ball) [2014, США, Великобритания, Канада, фантастика, триллер, приключения, BDRip-AVC] Dub + Dub Ukr + Sub Rus, Ukr, Eng + Original Eng

Ответить на тему
 
Автор Сообщение

user ®

Стаж: 7 лет 7 месяцев

Сообщений: 20008

Пост Пост: #1 от 31-Дек-2014 02:55

[Цитировать]

Бегущий в лабиринте / The Maze Runner«Только не останавливайся»- Страна: США, Великобритания, Канада
Жанр: фантастика, триллер, приключения
Год выпуска: 2014
Продолжительность: 01:53:27
Перевод: Профессиональный (дублированный)
Перевод 2: Профессиональный (дублированный) Ukr Отдельно
Cубтитры: Rus, Ukr, Eng [Full, SDH, Colored]
Оригинальная аудиодорожка: английский
Режиссер: Уэс Болл / Wes Ball (не путать с Уве Болл'ом)))
В ролях
Дилан О’Брайен / Dylan O'Brien (Thomas),
Томас Сэнгстер (Newt), Кая Скоделарио (Teresa), Уилл Поултер (Gally), Ки Хонг Ли (Minho), Блейк Купер (Chuck), Амл Амин (Alby), Алекс Дж. Флорес (Winston), Джейкоб Латимор (Jeff), Патришия Кларксон (Ava Paige), Декстер Дарден (Frypan)-ОписаниеГлавный герой — подросток Томас, который просыпается в лифте, но ничего не помнит, кроме своего имени. Он оказывается среди 60 подростков, научившихся выживать в замкнутом пространстве. Раз в 30 дней прибывает новый мальчик. Группа ребят проживает в «Приюте» уже три года. Они кормятся тем, что удается вырастить на земле, и пытаются найти выход из лабиринта, окружающего их место жительства. Но однажды появляется девочка в состоянии комы…-Сэмпл

IMDb: 7.10 (84 367)
Качество видео: BDRip-AVC THE_MAZE_RUNNER_REMUX_HDCLUB
Формат видео: MKV
Видео: AVC 1850 Kbps 1056 x 440 (2.400) 23.976 fps
Аудио: AC-3 384 Kbps 6 channels, 48.0 KHz Rus DUB
Аудио 2: AC-3 192 Kbps 2 channels, 48.0 KHz Ukr DUB Отдельно
Аудио 3: AC-3 384 Kbps 6 channels, 48.0 KHz Eng
Формат субтитров: softsub (SRT)
MediaInfo | Log
Log
x264 [info]: frame I:1144 Avg QP:13.82 size: 62564
x264 [info]: frame P:37689 Avg QP:15.65 size: 20765
x264 [info]: frame B:124367 Avg QP:18.66 size: 6138
x264 [info]: consecutive B-frames: 2.9% 3.8% 8.7% 25.3% 18.4% 24.8% 5.6% 5.1% 1.7% 1.0% 0.6% 1.0% 0.4% 0.2% 0.7%
x264 [info]: mb I I16..4: 8.1% 74.5% 17.4%
x264 [info]: mb P I16..4: 0.9% 11.9% 1.5% P16..4: 27.8% 33.6% 13.2% 2.5% 0.3% skip: 8.3%
x264 [info]: mb B I16..4: 0.1% 1.2% 0.1% B16..8: 33.4% 21.5% 3.5% direct: 4.1% skip:36.1% L0:42.2% L1:46.6% BI:11.2%
x264 [info]: 8x8 transform intra:81.8% inter:58.7%
x264 [info]: coded y,uvDC,uvAC intra: 86.8% 83.7% 67.5% inter: 19.3% 14.3% 4.2%
x264 [info]: i16 v,h,dc,p: 42% 9% 7% 42%
x264 [info]: i8 v,h,dc,ddl,ddr,vr,hd,vl,hu: 12% 8% 8% 9% 13% 12% 13% 12% 14%
x264 [info]: i4 v,h,dc,ddl,ddr,vr,hd,vl,hu: 14% 7% 8% 8% 15% 14% 13% 10% 12%
x264 [info]: i8c dc,h,v,p: 44% 24% 17% 14%
x264 [info]: Weighted P-Frames: Y:7.1% UV:3.8%
x264 [info]: ref P L0: 50.8% 9.1% 15.2% 5.9% 4.6% 3.6% 3.0% 1.8% 1.5% 1.3% 1.4% 1.4% 0.3% 0.0%
x264 [info]: ref B L0: 75.9% 10.3% 4.7% 2.4% 1.8% 1.7% 1.2% 0.7% 0.6% 0.4% 0.2%
x264 [info]: ref B L1: 93.1% 6.9%
x264 [info]: kb/s:1901.16
x264 [total]: encoded 163200 frames, 10.32 fps, 1901.17 kb/s, duration 4:23:32.43
Format : Matroska
Format version : Version 4 / Version 2
File size : 2.12 GiB
Duration : 1h 53mn
Overall bit rate : 2 672 Kbps
Encoded date : UTC 2014-12-30 12:13:24
Writing application : mkvmerge v6.7.0 ('Back to the Ground') 32bit built on Jan 8 2014 15:03:17
Writing library : libebml v1.3.0 + libmatroska v1.4.1
Video
ID : 1
Format : AVC
Format/Info : Advanced Video Codec
Format profile : High@L4.1
Format settings, CABAC : Yes
Format settings, ReFrames : 12 frames
Codec ID : V_MPEG4/ISO/AVC
Duration : 1h 53mn
Bit rate : 1 850 Kbps
Width : 1 056 pixels
Height : 440 pixels
Display aspect ratio : 2.40:1
Frame rate mode : Constant
Frame rate : 23.976 fps
Color space : YUV
Chroma subsampling : 4:2:0
Bit depth : 8 bits
Scan type : Progressive
Bits/(Pixel*Frame) : 0.166
Stream size : 1.47 GiB (69%)
Title : The Maze Runner [***]
Writing library : x264 core 144 r2525kMod 40bb568
Encoding settings : cabac=1 / ref=12 / deblock=1:-2:-1 / analyse=0x3:0x133 / me=umh / subme=11 / psy=1 / fade_compensate=0.00 / psy_rd=1.00:0.05 / mixed_ref=1 / me_range=48 / chroma_me=1 / trellis=2 / 8x8dct=1 / cqm=0 / deadzone=21,11 / fast_pskip=0 / chroma_qp_offset=-3 / threads=12 / lookahead_threads=3 / sliced_threads=0 / nr=0 / decimate=1 / interlaced=0 / bluray_compat=0 / constrained_intra=0 / fgo=0 / bframes=14 / b_pyramid=2 / b_adapt=2 / b_bias=0 / direct=1 / weightb=1 / open_gop=0 / weightp=2 / keyint=250 / keyint_min=23 / scenecut=40 / intra_refresh=0 / rc_lookahead=60 / rc=crf / mbtree=0 / crf=17.6000 / qcomp=0.60 / qpmin=0 / qpmax=69 / qpstep=4 / vbv_maxrate=50000 / vbv_bufsize=62500 / crf_max=0.0 / nal_hrd=none / filler=0 / ip_ratio=1.40 / pb_ratio=1.30 / aq=3:0.90
Language : English
Default : Yes
Forced : No
Audio #1
ID : 2
Format : AC-3
Format/Info : Audio Coding 3
Mode extension : CM (complete main)
Format settings, Endianness : Big
Codec ID : A_AC3
Duration : 1h 53mn
Bit rate mode : Constant
Bit rate : 384 Kbps
Channel(s) : 6 channels
Channel positions : Front: L C R, Side: L R, LFE
Sampling rate : 48.0 KHz
Bit depth : 16 bits
Compression mode : Lossy
Stream size : 312 MiB (14%)
Title : DUB
Language : Russian
Default : Yes
Forced : No
Audio #2
ID : 3
Format : AC-3
Format/Info : Audio Coding 3
Mode extension : CM (complete main)
Format settings, Endianness : Big
Codec ID : A_AC3
Duration : 1h 53mn
Bit rate mode : Constant
Bit rate : 384 Kbps
Channel(s) : 6 channels
Channel positions : Front: L C R, Side: L R, LFE
Sampling rate : 48.0 KHz
Bit depth : 16 bits
Compression mode : Lossy
Stream size : 312 MiB (14%)
Title : Original
Language : English
Default : No
Forced : No
Text #1
ID : 4
Format : UTF-8
Codec ID : S_TEXT/UTF8
Codec ID/Info : UTF-8 Plain Text
Language : Russian
Default : No
Forced : No
Text #2
ID : 5
Format : UTF-8
Codec ID : S_TEXT/UTF8
Codec ID/Info : UTF-8 Plain Text
Language : Ukrainian
Default : No
Forced : No
Text #3
ID : 6
Format : UTF-8
Codec ID : S_TEXT/UTF8
Codec ID/Info : UTF-8 Plain Text
Title : Full
Language : English
Default : No
Forced : No
Text #4
ID : 7
Format : UTF-8
Codec ID : S_TEXT/UTF8
Codec ID/Info : UTF-8 Plain Text
Title : SDH
Language : English
Default : No
Forced : No
Text #5
ID : 8
Format : UTF-8
Codec ID : S_TEXT/UTF8
Codec ID/Info : UTF-8 Plain Text
Title : SDH Colored
Language : English
Default : No
Forced : No
Menu
00:00:00.000 : en:Chapter 01
00:03:12.650 : en:Chapter 02
00:07:15.976 : en:Chapter 03
00:10:25.249 : en:Chapter 04
00:14:15.562 : en:Chapter 05
00:17:21.248 : en:Chapter 06
00:19:33.337 : en:Chapter 07
00:23:21.022 : en:Chapter 08
00:24:36.391 : en:Chapter 09
00:28:13.107 : en:Chapter 10
00:31:26.009 : en:Chapter 11
00:34:12.050 : en:Chapter 12
00:37:11.810 : en:Chapter 13
00:41:00.875 : en:Chapter 14
00:42:16.617 : en:Chapter 15
00:45:47.452 : en:Chapter 16
00:48:31.823 : en:Chapter 17
00:52:57.797 : en:Chapter 18
00:55:21.774 : en:Chapter 19
00:57:58.807 : en:Chapter 20
00:59:31.150 : en:Chapter 21
01:01:35.273 : en:Chapter 22
01:05:13.909 : en:Chapter 23
01:08:42.408 : en:Chapter 24
01:12:14.246 : en:Chapter 25
01:14:22.832 : en:Chapter 26
01:20:27.823 : en:Chapter 27
01:22:25.649 : en:Chapter 28
01:25:38.173 : en:Chapter 29
01:29:41.582 : en:Chapter 30
01:33:49.457 : en:Chapter 31
01:36:43.255 : en:Chapter 32
01:39:33.425 : en:Chapter 33
01:43:05.595 : en:Chapter 34
01:45:08.217 : en:Chapter 35
01:46:12.657 : en:Chapter 36
Скриншоты
Скачать

Скачать торрент!

Как скачивать? · Что такое торрент? · Рейтинг и ограничения

Сайт не распространяет и не хранит электронные версии произведений, а лишь предоставляет доступ к создаваемому пользователями каталогу ссылок на торрент-файлы, которые содержат только списки хеш-сумм

[Профиль] [ЛС]
Показать сообщения:    
Ответить на тему

Текущее время: Сегодня 06:30

Часовой пояс: GMT + 4



Вы не можете начинать темы
Вы не можете отвечать на сообщения
Вы не можете редактировать свои сообщения
Вы не можете удалять свои сообщения
Вы не можете голосовать в опросах
Вы не можете прикреплять файлы к сообщениям
Вы не можете скачивать файлы