Босс в гостиной / Un boss in salotto (Лука Миньеро / Luca Miniero) [2014, Италия, комедия, DVDRip-AVC] VO (Игорь Головин)

Ответить на тему
 
Автор Сообщение

user ®

Стаж: 7 лет 7 месяцев

Сообщений: 20008

Пост Пост: #1 от 31-Дек-2014 02:55

[Цитировать]

Босс в гостиной / Un boss in salotto
Страна: Италия
Жанр: комедия
Год выпуска: 2014
Продолжительность: 01:40:00
Перевод: Одноголосый закадровый (Игорь Головин по переводу ladySpais)
Cубтитры: нет
Режиссер: Лука Миньеро / Luca Miniero
В ролях: Паола Кортеллези (Paola Cortellesi), Рокко Папалео (Rocco Papaleo), Лука Арджентеро (Luca Argentero), Анджела Финоккьяро (Angela Finocchiaro), Алессандро Безентини (Alessandro Besentini), Франческо Вилла (Francesco Villa), Ммассимо Де Лоренцо (Massimo De Lorenzo), Марко Марцокка (Marco Marzocca), Саул Нанни (Saul Nanni), Лавинья Де Коччи (Lavinia De' Cocci), Сальваторе Мистиконе (Salvatore Misticone), Лука Миньеро.
Описание: Кристина энергичная итальянка, живущая в небольшом городке на севере Италии. Ей удалось построить идеальную семью с мужем Микеле и двумя прекрасными детьми. Однажды после звонка в полицейский участок Кристина узнаёт, что её брат замешан в крупном процессе над мафией. Брат, которого, она не видела 15 лет, просит провести некоторое время под домашним арестом в её доме. Через силу Кристина даёт своё согласие. Все планы и привычная рутина семьи пойдут кувырком после появления в ней не приученного к хорошим манерам всего в татуировках и золотых цепях дядюшки Чиро.
Сэмпл: http://sendfile.su/1068140
Трейлер: https://www.youtube.com/watch?v=vmmCy9Wzbpc
Качество видео: DVDRip-AVC
Формат видео: MKV
Видео: 1920x816 (2.35:1), 23,976 fps, AVC MPEG-4, 1729 kbps
Аудио: MP3, 48 KHz, 256 kb/s (2 ch)
MediaInfo
Общее
Уникальный идентификатор : 235561720744977699480193801511947072108 (0xB13789843263E66C9AE600E72FE9F26C)
Полное имя : G:\Download\Un boss in salotto\Un.Boss.In.Salotto.2014_1.mkv
Формат : Matroska
Версия формата : Version 4 / Version 2
Размер файла : 1,41 Гбайт
Продолжительность : 1 ч. 42 м.
Общий поток : 1972 Кбит/сек
Дата кодирования : UTC 2014-12-30 17:48:54
Программа кодирования : mkvmerge v6.0.0 ('Coming Up For Air') built on Jan 20 2013 09:52:00
Библиотека кодирования : libebml v1.3.0 + libmatroska v1.4.0
Видео
Идентификатор : 1
Формат : AVC
Формат/Информация : Advanced Video Codec
Профиль формата : Main@L4.0
Параметр CABAC формата : Да
Параметр ReFrames формата : 2 кадра
Идентификатор кодека : V_MPEG4/ISO/AVC
Продолжительность : 1 ч. 42 м.
Битрейт : 1729 Кбит/сек
Ширина : 1920 пикселей
Высота : 816 пикселей
Соотношение сторон : 2,35:1
Режим частоты кадров : Постоянный
Частота кадров : 23,976 кадра/сек
Цветовое пространство : YUV
Субдискретизация насыщенности : 4:2:0
Битовая глубина : 8 бит
Тип развёртки : Прогрессивная
Бит/(Пиксели*Кадры) : 0.046
Размер потока : 1,20 Гбайт (85%)
Библиотека кодирования : x264 core 112 r1834 a51816a
Настройки программы : cabac=1 / ref=1 / deblock=1:0:0 / analyse=0x1:0 / me=dia / subme=2 / psy=1 / psy_rd=0.00:0.00 / mixed_ref=0 / me_range=16 / chroma_me=1 / trellis=0 / 8x8dct=0 / cqm=0 / deadzone=21,11 / fast_pskip=1 / chroma_qp_offset=0 / threads=4 / sliced_threads=0 / nr=0 / decimate=1 / interlaced=0 / constrained_intra=0 / bframes=3 / b_pyramid=0 / b_adapt=1 / b_bias=0 / direct=3 / weightb=0 / open_gop=0 / weightp=2 / keyint=250 / keyint_min=25 / scenecut=40 / intra_refresh=0 / rc_lookahead=40 / rc=abr / mbtree=1 / bitrate=1729 / ratetol=1.0 / qcomp=0.60 / qpmin=10 / qpmax=51 / qpstep=4 / ip_ratio=1.41 / aq=1:1.00
Default : Да
Forced : Нет
Аудио
Идентификатор : 2
Формат : MPEG Audio
Версия формата : Version 1
Профиль формата : Layer 3
Режим : Joint stereo
Идентификатор кодека : A_MPEG/L3
Идентификатор кодека/Подсказка : MP3
Продолжительность : 1 ч. 42 м.
Вид битрейта : Постоянный
Битрейт : 256 Кбит/сек
Каналы : 2 канала
Частота : 48,0 КГц
Метод сжатия : С потерями
Размер потока : 187 Мбайт (13%)
Библиотека кодирования : LAME3.97
Default : Да
Forced : Нет
Скриншот c названием фильма Скриншоты
Скачать

Скачать торрент!

Как скачивать? · Что такое торрент? · Рейтинг и ограничения

Сайт не распространяет и не хранит электронные версии произведений, а лишь предоставляет доступ к создаваемому пользователями каталогу ссылок на торрент-файлы, которые содержат только списки хеш-сумм

[Профиль] [ЛС]
Показать сообщения:    
Ответить на тему

Текущее время: Сегодня 08:13

Часовой пояс: GMT + 4



Вы не можете начинать темы
Вы не можете отвечать на сообщения
Вы не можете редактировать свои сообщения
Вы не можете удалять свои сообщения
Вы не можете голосовать в опросах
Вы не можете прикреплять файлы к сообщениям
Вы не можете скачивать файлы