Пожар / Огненный шторм / Firestorm (Дин Семлер / Dean Semler) [1998, США, боевик, триллер, HDTV 1080i] MVO

Ответить на тему
 
Автор Сообщение

user ®

Стаж: 8 лет

Сообщений: 20008

Пост Пост: #1 от 30-Дек-2014 06:00

[Цитировать]

Пожар / Огненный шторм / Firestorm
Страна: США
Жанр: боевик, триллер
Год выпуска: 1998
Продолжительность: 01:21:52
Перевод: Профессиональный (многоголосый закадровый)
Cубтитры: нет
Режиссер: Дин Семлер / Dean Semler
В ролях: Хоуи Лонг, Скотт Гленн, Уильям Форсайт, Сьюзи Эймис, Кристианна Херт, Гарвин Санфорд, Себастьян Спенс, Майкл Грейес, Барри Пеппер, Владимир Кулих
Описание: Рэндел Шей — жестокий убийца, отбывающий срок за ограбление поезда. Ему удается осуществить дерзкий побег. Неподалеку от тюрьмы подстроен лесной пожар, который позволяет скрыться Шэю и группе уголовников. Джесси Грэйвз — командир элитного отряда пожарников, которых называют «прыгунами в дым».
Во время больших лесных пожаров команду Грейвза десантируют с самолета прямо в пламя, в места недоступные для наземных подразделений. Когда поступает сигнал о стихийном бедствии, Джесси еще не подозревает, что ему в одиночку предстоит смертельный поединок не только с разбушевавшейся стихией, но и с бандой опасных преступников…
Сэмпл: http://sendfile.su/1067250

Тип релиза: HDTV 1080i
Контейнер: TS
Видео: AVC/H.264, 1920x1080 (16:9), 12,2 Мбит/сек, 25.000 fps
Аудио: русский, MP2, 2ch, 48,0 КГц, 192 Кбит/сек
MediaInfo
Общее
Идентификатор : 1 (0x1)
Полное имя : D:\Огненный шторм.ts
Формат : MPEG-TS
Размер файла : 7,48 Гбайт
Продолжительность : 1 ч. 21 м.
Режим общего битрейта : Переменный
Общий поток : 13,1 Мбит/сек
Максимальный общий битрейт : 35,5 Мбит/сек
Видео
Идентификатор : 4113 (0x1011)
Идентификатор меню : 1 (0x1)
Формат : AVC
Формат/Информация : Advanced Video Codec
Профиль формата : Main@L4.0
Параметр CABAC формата : Да
Параметр ReFrames формата : 3 кадра
Идентификатор кодека : 27
Продолжительность : 1 ч. 21 м.
Вид битрейта : Переменный
Битрейт : 12,2 Мбит/сек
Максимальный битрейт : 40,0 Мбит/сек
Ширина : 1920 пикселей
Высота : 1080 пикселей
Соотношение сторон : 16:9
Частота кадров : 25,000 кадров/сек
Стандарт вещания : Component
Цветовое пространство : YUV
Субдискретизация насыщенности : 4:2:0
Битовая глубина : 8 бит
Тип развёртки : Чересстрочная
Порядок развёртки : Верхнее поле первое
Бит/(Пиксели*Кадры) : 0.236
Размер потока : 7,00 Гбайт (94%)
Аудио
Идентификатор : 4352 (0x1100)
Идентификатор меню : 1 (0x1)
Формат : MPEG Audio
Версия формата : Version 1
Профиль формата : Layer 2
Идентификатор кодека : 4
Продолжительность : 1 ч. 21 м.
Вид битрейта : Постоянный
Битрейт : 192 Кбит/сек
Каналы : 2 канала
Частота : 48,0 КГц
Метод сжатия : С потерями
Размер потока : 112 Мбайт (1%)
Язык : Russian
Скриншот с названием фильма Скриншоты
Скачать

Скачать торрент!

Как скачивать? · Что такое торрент? · Рейтинг и ограничения

Сайт не распространяет и не хранит электронные версии произведений, а лишь предоставляет доступ к создаваемому пользователями каталогу ссылок на торрент-файлы, которые содержат только списки хеш-сумм

[Профиль] [ЛС]
Показать сообщения:    
Ответить на тему

Текущее время: Сегодня 23:48

Часовой пояс: GMT + 4



Вы не можете начинать темы
Вы не можете отвечать на сообщения
Вы не можете редактировать свои сообщения
Вы не можете удалять свои сообщения
Вы не можете голосовать в опросах
Вы не можете прикреплять файлы к сообщениям
Вы не можете скачивать файлы