Интервью / The Interview (Эван Голдберг, Сет Роген / Evan Goldberg, Seth Rogen) [2014, США / Columbia Pictures, LStar Capital, Point Grey Pictures, боевик, комедия, WEB-DL] DVO (Студия Пиратского Дубляжа) + Sub Eng

Ответить на тему
 
Автор Сообщение

user ®

Стаж: 7 лет 7 месяцев

Сообщений: 20008

Пост Пост: #1 от 30-Дек-2014 06:00

[Цитировать]

Интервью / The Interview
Страна: США / Columbia Pictures, LStar Capital, Point Grey Pictures
Жанр: боевик, комедия
Год выпуска: 2014
Продолжительность: 01:52:10
Перевод: Любительский (двухголосый закадровый) [Студия Пиратского Дубляжа]
Cубтитры: английские
Режиссер: Эван Голдберг, Сет Роген / Evan Goldberg, Seth Rogen
В ролях: Джеймс Франко, Сет Роген, Лиззи Каплан, Рэндолл Парк, Диана Банг, Тимоти С. Саймонс, Риз Александр, Джеймс Йи, Пол Бай, Джофф Густафссон
Описание: Дэйв — фантастически талантливый журналист популярного ток-шоу, продюсирует которое его лучший друг Аарон. Друзья, давно мечтавшие сделать что-то по-настоящему значимое, решают взять интервью у северокорейского диктатора Ким Чен Ына. Вскоре к ним обращается ЦРУ, которое просит наших героев ни много ни мало — убить Кима. Так начинается веселая история о двух наименее квалифицированных наемных убийцах в истории человечества…

Качество видео: WEB-DL
Формат видео: MKV
Видео: AVC, 1280x534, 2.40:1, 23.976 fps, 3791 Kb/s
Аудио 1: Russian: AC3, 48.0 KHz 384 Kb/s (2 ch)
Аудио 2: English: AC3, 48.0 KHz 384 Kb/s (6 ch)
Формат субтитров: softsub (SRT)
MediaInfo
C:\Users\Арсен\Desktop\The.Interview.2014.L2.WEB-DL.720p.mkv
General
Unique ID : 199692150554691707500195832949361268614 (0x963B4F2A6F054FD1A4F64A518C2ED786)
Complete name : C:\Users\Арсен\Desktop\The.Interview.2014.L2.WEB-DL.720p.mkv
Format : Matroska
Format version : Version 4 / Version 2
File size : 3.65 GiB
Duration : 1h 52mn
Overall bit rate : 4 652 Kbps
Encoded date : UTC 2014-12-28 23:52:22
Writing application : mkvmerge v6.1.0 ('Old Devil') built on Mar 4 2013 09:10:42
Writing library : libebml v1.3.0 + libmatroska v1.4.0
DURATION : 01:50:32.725000000
NUMBER_OF_FRAMES : 2509
NUMBER_OF_BYTES : 73876
_STATISTICS_WRITING_APP : mkvmerge v7.4.0 ('Circles') 64bit built on Dec 12 2014 12:19:56
_STATISTICS_WRITING_DATE_UTC : 2014-12-28 19:09:25
_STATISTICS_TAGS : BPS DURATION NUMBER_OF_FRAMES NUMBER_OF_BYTES
Video #1
ID : 1
Format : AVC
Format/Info : Advanced Video Codec
Format profile : Main@L3.1
Format settings, CABAC : No
Format settings, ReFrames : 2 frames
Codec ID : V_MPEG4/ISO/AVC
Duration : 1h 52mn
Bit rate : 3 791 Kbps
Width : 1 280 pixels
Height : 534 pixels
Display aspect ratio : 2.40:1
Frame rate : 23.976 fps
Color space : YUV
Chroma subsampling : 4:2:0
Bit depth : 8 bits
Scan type : Progressive
Bits/(Pixel*Frame) : 0.231
Stream size : 2.97 GiB (81%)
Language : English
Color primaries : BT.709-5, BT.1361, IEC 61966-2-4, SMPTE RP177
Transfer characteristics : BT.709-5, BT.1361
Matrix coefficients : BT.709-5, BT.1361, IEC 61966-2-4 709, SMPTE RP177
Audio #2
ID : 2
Format : AC-3
Format/Info : Audio Coding 3
Mode extension : CM (complete main)
Codec ID : A_AC3
Duration : 1h 52mn
Bit rate mode : Constant
Bit rate : 384 Kbps
Channel(s) : 6 channels
Channel positions : Front: L C R, Side: L R, LFE
Sampling rate : 48.0 KHz
Bit depth : 16 bits
Compression mode : Lossy
Stream size : 308 MiB (8%)
Language : English
Audio #3
ID : 3
Format : AC-3
Format/Info : Audio Coding 3
Mode extension : CM (complete main)
Codec ID : A_AC3
Duration : 1h 52mn
Bit rate mode : Constant
Bit rate : 384 Kbps
Channel(s) : 6 channels
Channel positions : Front: L C R, Side: L R, LFE
Sampling rate : 48.0 KHz
Bit depth : 16 bits
Compression mode : Lossy
Stream size : 308 MiB (8%)
Language : English
Text #4
ID : 4
Format : UTF-8
Codec ID : S_TEXT/UTF8
Codec ID/Info : UTF-8 Plain Text
Language : English
Скриншот c названием фильма Скриншоты
Скачать

Скачать торрент!

Как скачивать? · Что такое торрент? · Рейтинг и ограничения

Сайт не распространяет и не хранит электронные версии произведений, а лишь предоставляет доступ к создаваемому пользователями каталогу ссылок на торрент-файлы, которые содержат только списки хеш-сумм

[Профиль] [ЛС]
Показать сообщения:    
Ответить на тему

Текущее время: Сегодня 00:40

Часовой пояс: GMT + 4



Вы не можете начинать темы
Вы не можете отвечать на сообщения
Вы не можете редактировать свои сообщения
Вы не можете удалять свои сообщения
Вы не можете голосовать в опросах
Вы не можете прикреплять файлы к сообщениям
Вы не можете скачивать файлы