Рождество Герми и его друзей / Hermie & Friends: A Fruitcake Christmas (Трой Шмидт / Troy Schmidt) [2005 г., США, Мультфильм, DVDRip] MVO + Original Eng

Ответить на тему
 
Автор Сообщение

user ®

Стаж: 12 лет

Сообщений: 15145

Пост Пост: #1 от 29-Дек-2014 21:55

[Цитировать]

Рождество Герми и его друзей / Hermie & Friends: A Fruitcake Christmas -Год выпуска: 2005
Страна: США
Жанр: Мультфильм
Продолжительность: 00:39:15
Перевод: Профессиональный (многоголосый, закадровый)
Оригинал: Английский
Русские субтитры: нет
Режиссер: Трой Шмидт / Troy Schmidt
Описание: Герми и его друзья готовятся отмечать Рождество. Они наряжают елку, готовят подарки и розыгрыши. И больше всего они ждут когда бабушка Герми привезет его любимый фруктовый пирог. Но злобные тараканы Игги и Зиги не хотят, чтобы Рождество наступило и постоянно подстраивают всякие гадости. Друзья решают перевоспитать противных тараканов, чтобы те не испортили веселый праздник.- | | Семпл | -Качество: DVDRip
Формат: AVI
Видео: 720x400 (1.80:1), 23.976 fps, XviD build 73 ~1745 kbps avg, 0.25 bit/pixel
Аудио #1: Русский, 48 kHz, AC3 Dolby Digital, 3/2 (L,C,R,l,r) + LFE ch, ~448 kbps
Аудио #2: Английский, 48 kHz, AC3 Dolby Digital, 3/2 (L,C,R,l,r) + LFE ch, ~448 kbps

MediaInfo
GeneralComplete name : Rozhdestvo.Germi.i.ego.druzei.2005.MVO.Eng.Olu6ka.aviFormat : AVIFormat/Info : Audio Video InterleaveFile size : 746 MiBDuration : 39mn 15sOverall bit rate : 2 657 KbpsWriting application : VirtualDubModRus 1.5.10.2 (build 2542/release)Writing library : VirtualDubMod build 2542/release
VideoID : 0Format : MPEG-4 VisualFormat profile : Advanced Simple@L5Format settings, BVOP : 1Format settings, QPel : NoFormat settings, GMC : No warppointsFormat settings, Matrix : CustomCodec ID : XVIDCodec ID/Hint : XviDDuration : 39mn 15sBit rate : 1 747 KbpsWidth : 720 pixelsHeight : 400 pixelsDisplay aspect ratio : 16:9Frame rate : 23.976 fpsColor space : YUVChroma subsampling : 4:2:0Bit depth : 8 bitsScan type : ProgressiveCompression mode : LossyBits/(Pixel*Frame) : 0.253Stream size : 491 MiB (66%)Writing library : XviD 73
Audio #1ID : 1Format : AC-3Format/Info : Audio Coding 3Mode extension : CM (complete main)Format settings, Endianness : BigCodec ID : 2000Duration : 39mn 15sBit rate mode : ConstantBit rate : 448 KbpsChannel count : 6 channelsChannel positions : Front: L C R, Side: L R, LFESampling rate : 48.0 KHzBit depth : 16 bitsCompression mode : LossyStream size : 126 MiB (17%)Alignment : Split accross interleavesInterleave, duration : 42 ms (1.00 video frame)Interleave, preload duration : 500 ms
Audio #2ID : 2Format : AC-3Format/Info : Audio Coding 3Mode extension : CM (complete main)Format settings, Endianness : BigCodec ID : 2000Duration : 39mn 14sBit rate mode : ConstantBit rate : 448 KbpsChannel count : 6 channelsChannel positions : Front: L C R, Side: L R, LFESampling rate : 48.0 KHzBit depth : 16 bitsCompression mode : LossyStream size : 126 MiB (17%)Alignment : Split accross interleavesInterleave, duration : 42 ms (1.00 video frame)Interleave, preload duration : 500 ms
Скриншоты Сравнение

В обоих рипах нарушен аспект
[url=http://***/forum/viewtopic.php?t=2528481]http://***/forum/viewtopic.php?t=2528481[/url]
http://screenshotcomparison.com/comparison/105648-[url=http://***/forum/viewtopic.php?t=1067538]http://***/forum/viewtopic.php?t=1067538[/url]
http://screenshotcomparison.com/comparison/105647-ну, и небольшой недокроп по верхнему краю - 1 пиксель, мелочи ))) - на третьем кадре видно
Спасибо xfiles за помощь и поддержку!!Релиз от группы
Скачать

Скачать торрент! Рождество Герми и его друзей / Hermie & Friends: A Fruitcake Christmas (Трой Шмидт / Troy Schmidt) [2005 г., США, Мультфильм, DVDRip] MVO + Original Eng

Как скачивать? · Что такое торрент? · Рейтинг и ограничения

Сайт не распространяет и не хранит электронные версии произведений, а лишь предоставляет доступ к создаваемому пользователями каталогу ссылок на торрент-файлы, которые содержат только списки хеш-сумм

[Профиль] [ЛС]
Показать сообщения:    
Ответить на тему

Текущее время: Сегодня 20:19

Часовой пояс: GMT + 4



Вы не можете начинать темы
Вы не можете отвечать на сообщения
Вы не можете редактировать свои сообщения
Вы не можете удалять свои сообщения
Вы не можете голосовать в опросах
Вы не можете прикреплять файлы к сообщениям
Вы не можете скачивать файлы