Два капитана [1-6 из 6 серии] (Евгений Карелов) [1976, Приключения, DVDRip] от Шкипер

Ответить на тему
 
Автор Сообщение

user ®

Стаж: 7 лет 7 месяцев

Сообщений: 20008

Пост Пост: #1 от 29-Дек-2014 18:45

[Цитировать]

Два капитана Жанр: Приключения
Год выпуска: 1976
Продолжительность: ~01:06:23 серия
Режиссёр: Евгений Карелов
В ролях: Николай Гриценко, Юрий Богатырев, Ирина Печерникова, Елена Прудникова, Борис Токарев, Любовь Соколова, Петр Любешкин, Борислав Брондуков, Вера Кузнецова, Георгий Куликов, Михаил Пуговкин, Александр Вокач, Наталья Егорова, Владимир Заманский, Зинаида Кириенко, Юрий Кузьменков, Иван Власов, Александр Диденко, Вадим Гусев, Владимир Пицек, Владимир Мышкин, Юрий Мартынов, Владимир Маренков, Константин Бердиков, Александр Вигдоров, Наталья Крачковская, Александра Данилова, Василий Корзун, Анатолий Яббаров, Любовь Калюжная, Никифор Колофидин, Николай Горлов, Лидия Драновская, Евгений Буренков, Лариса Виккел, Павел Винник, Юрий Гусев, Раиса Куркина, Михаил Погоржельский, Николай Дупак, Дмитрий Франько
Описание: В начале века в провинциальном городке десятилетний Саня Григорьев находит в речке сумку с письмами участников какой-то пропавшей экспедиции. По удивительному стечению обстоятельств с поисками ее следов будет связана вся его дальнейшая жизнь, и роковую роль сыграет в ней тот, по чьей вине эта экспедиция погибла…
Рип от:
Сэмпл: http://multi-up.com/1023342
Качество видео: DVDRip
Формат видео: AVI
Видео: 640x480 (1.33:1), 25 fps, XviD build 73 ~1425 kbps avg, 0.19 bit/pixel
Аудио: 48 kHz, MPEG Layer 3, 1 ch, ~128.00 kbps avg
MediaInfo
General
Complete name : D:\Торрент\МОИ РИПЫ\Два капитана\Два капитана.DVDrip by Шкрипер\1. Два капитана (Старые письма) 1 из 6 с. Шкипер.avi
Format : AVI
Format/Info : Audio Video Interleave
File size : 742 MiB
Duration : 1h 6mn
Overall bit rate : 1 563 Kbps
Writing application : VirtualDubMod 1.5.10.3 | www.virtualdub-fr.org || (build 2550/release)
Writing library : VirtualDubMod build 2550/release
Video
ID : 0
Format : MPEG-4 Visual
Format profile : Advanced Simple@L5
Format settings, BVOP : 1
Format settings, QPel : No
Format settings, GMC : No warppoints
Format settings, Matrix : Default (MPEG)
Codec ID : XVID
Codec ID/Hint : XviD
Duration : 1h 6mn
Bit rate : 1 426 Kbps
Width : 640 pixels
Height : 480 pixels
Display aspect ratio : 4:3
Frame rate : 25.000 fps
Color space : YUV
Chroma subsampling : 4:2:0
Bit depth : 8 bits
Scan type : Progressive
Compression mode : Lossy
Bits/(Pixel*Frame) : 0.186
Stream size : 677 MiB (91%)
Writing library : XviD 73
Audio
ID : 1
Format : MPEG Audio
Format version : Version 1
Format profile : Layer 3
Codec ID : 55
Codec ID/Hint : MP3
Duration : 1h 6mn
Bit rate mode : Constant
Bit rate : 128 Kbps
Channel(s) : 1 channel
Sampling rate : 48.0 KHz
Compression mode : Lossy
Stream size : 60.8 MiB (8%)
Alignment : Aligned on interleaves
Interleave, duration : 40 ms (1.00 video frame)
Interleave, preload duratio : 504 ms
Writing library : LAME3.99r
Encoding settings : -m m -V 4 -q 2 -lowpass 20.5 -b 128
Скриншот c названием фильма Скриншоты
Скачать

Скачать торрент!

Как скачивать? · Что такое торрент? · Рейтинг и ограничения

Сайт не распространяет и не хранит электронные версии произведений, а лишь предоставляет доступ к создаваемому пользователями каталогу ссылок на торрент-файлы, которые содержат только списки хеш-сумм

[Профиль] [ЛС]
Показать сообщения:    
Ответить на тему

Текущее время: Сегодня 00:39

Часовой пояс: GMT + 4



Вы не можете начинать темы
Вы не можете отвечать на сообщения
Вы не можете редактировать свои сообщения
Вы не можете удалять свои сообщения
Вы не можете голосовать в опросах
Вы не можете прикреплять файлы к сообщениям
Вы не можете скачивать файлы