Молодая кровь / Son of a gun (Джулиус Эйвери / Julius Avery) [2014, Австралия, боевик, драма, криминал, WEB-DLRip] VO (den904) + Sub Rus + Original Eng

Ответить на тему
 
Автор Сообщение

user ®

Стаж: 7 лет 7 месяцев

Сообщений: 20008

Пост Пост: #1 от 29-Дек-2014 12:25

[Цитировать]

Молодая кровь / Son of a gun
Страна: Австралия
Жанр: боевик, драма, криминал
Год выпуска: 2014
Продолжительность: 01:48:45
Перевод: одноголосый закадровый den904
Cубтитры: есть
Оригинальная аудиодорожка: английский
Режиссер: Джулиус Эйвери / Julius Avery
В ролях: Брентон Туэйтс, Юэн МакГрегор, Алисия Викандер, Мэтью Нэйбл, Дэймон Херриман, Нэш Эдгертон, Яцек Коман, Джесси МакДжинн,Эдди Бару
Описание: Джей и красавица Наташа любят друг друга. И всё бы ничего, если бы молодая пара не поучаствовала в ограблении века и не похитила груду золота. Но главная проблема в том, что предводитель их банды — легендарный грабитель Брэндан Линч, не собирается ни с кем делиться добычей. И вовсе не хочет никого отпускать «жить счастливо». Поэтому Джей с Наташей могут либо «умереть в один день», либо придумать собственный хитроумный план со счастливым концом.

Доп. информация:
Перевод: Antonio, озвучка: den904
По заказу РГ Колобок
Сэмпл: http://multi-up.com/1011162
Качество видео: WEB-DLRip
Формат видео: AVI
Формат субтитров: softsub (srt)
Видео: Xvid 720x304 24.00fps 1541Kbps
Аудио 1: Dolby AC3 48000Hz stereo 192Kbps [русский]
Аудио 2: Dolby AC3 48000Hz stereo 192Kbps [английский]
MediaInfo
General
Complete name : D:\TORRENTS\Молодая кровь\Молодая кровь.avi
Format : AVI
Format/Info : Audio Video Interleave
File size : 1.48 GiB
Duration : 1h 48mn
Overall bit rate : 1 947 Kbps
Video
ID : 0
Format : MPEG-4 Visual
Format profile : Simple@L5
Format settings, BVOP : No
Format settings, QPel : No
Format settings, GMC : No warppoints
Format settings, Matrix : Default (H.263)
Codec ID : XVID
Codec ID/Hint : XviD
Duration : 1h 48mn
Bit rate : 1 542 Kbps
Width : 720 pixels
Height : 304 pixels
Display aspect ratio : 2.35:1
Frame rate : 24.000 fps
Color space : YUV
Chroma subsampling : 4:2:0
Bit depth : 8 bits
Scan type : Progressive
Compression mode : Lossy
Bits/(Pixel*Frame) : 0.294
Stream size : 1.17 GiB (79%)
Writing library : Lavc56.13.100
Audio #1
ID : 1
Format : MPEG Audio
Format version : Version 1
Format profile : Layer 3
Codec ID : 55
Codec ID/Hint : MP3
Duration : 1h 48mn
Bit rate mode : Constant
Bit rate : 192 Kbps
Channel(s) : 2 channels
Sampling rate : 48.0 KHz
Compression mode : Lossy
Stream size : 149 MiB (10%)
Alignment : Aligned on interleaves
Interleave, duration : 24 ms (0.58 video frame)
Writing library : LAMEUЙ5їЯn±ІҐЈѓљg‚
Audio #2
ID : 2
Format : MPEG Audio
Format version : Version 1
Format profile : Layer 3
Mode : Joint stereo
Mode extension : MS Stereo
Codec ID : 55
Codec ID/Hint : MP3
Duration : 1h 2mn
Source duration : 1h 48mn
Bit rate mode : Constant
Bit rate : 192 Kbps
Channel(s) : 2 channels
Sampling rate : 48.0 KHz
Compression mode : Lossy
Stream size : 149 MiB (10%)
Alignment : Aligned on interleaves
Interleave, duration : 24 ms (0.58 video frame)
Writing library : LAME3.99.5UUUUUUUUUя
Скриншот c названием фильма Скриншоты
Скачать

Скачать торрент!

Как скачивать? · Что такое торрент? · Рейтинг и ограничения

Сайт не распространяет и не хранит электронные версии произведений, а лишь предоставляет доступ к создаваемому пользователями каталогу ссылок на торрент-файлы, которые содержат только списки хеш-сумм

[Профиль] [ЛС]
Показать сообщения:    
Ответить на тему

Текущее время: Сегодня 00:19

Часовой пояс: GMT + 4



Вы не можете начинать темы
Вы не можете отвечать на сообщения
Вы не можете редактировать свои сообщения
Вы не можете удалять свои сообщения
Вы не можете голосовать в опросах
Вы не можете прикреплять файлы к сообщениям
Вы не можете скачивать файлы