Таблетка от слёз (Серик Бейсеуов) [2014, Мелодрама, драма, HDTVRip]

Ответить на тему
 
Автор Сообщение

user ®

Стаж: 7 лет 7 месяцев

Сообщений: 20008

Пост Пост: #1 от 29-Дек-2014 02:10

[Цитировать]

Таблетка от слёз
Жанр: Мелодрама, драма
Год выпуска: 2014
Продолжительность: 01:30:20
Режиссёр: Серик Бейсеуов
В ролях: Светлана Павлова, Дмитрий Блажко, Анна Сергеева, Антон Батырев, Инна Мирошниченко, Николай Боклан, Женя Лебедин, Татьяна Казанцева, Денис Христов, Наталья Вихрян, Татьяна Зиновенко, Светлана Смирнова
Описание: Лариса - молодая красивая студентка пединститута. И хотя у неё есть комната в общежитии, там она практически не появляется - вот уже почти год у неё длится роман с Ромой - москвичом из состоятельной семьи. Своё высшее образование Лариса скорее «домучивает ради корочки», ведь она уверена в том, что её любовь взаимна и до счастливого замужества рукой подать. Правда, в её планы пока не входят совместные дети. Для Ларисы сейчас главное - посвятить всю себя Роме. Но всё оказывается не так уж здорово. Поняв, что Лариса хочет за него замуж, легкомысленный и привыкший жить за счёт родителей раздолбай Роман, испугавшись серьёзных отношений, бросает девушку. Даже ситуацию с беременностью Ларисы, приведшую парня в ужас, он планирует использовать с пользой для себя. Лариса понимает, что кроме работы по образованию ей ничего не светит. Среди детей, к которым Лариса вскоре привыкает, есть мальчик Никита. Малыша приводит и забирает отец Максим. Никто и никогда не видел мать Никиты. Он достаточно закрытый и проблемный мальчик, в связи с чем у Ларисы возникает конфликт с его папой, набравший со временем совершенно иные краски.

Качество видео: HDTVRip [Исходник: HDTV (1080i)]
Формат видео: AVI
Видео: XviD, 1002 Кбит/с, 656x368 (16:9), 25 кадр/с
Аудио: Русский, MP3, 48000 Гц, 128 Кбит/с, 2 канала (Стерео)

Автор рипа - ivandubskoj
MediaInfo
General
Complete name : Tabletka.ot.slez.2014.HDTVRip.736MB.avi
Format : AVI
Format/Info : Audio Video Interleave
File size : 736 MiB
Duration : 1h 30mn
Overall bit rate : 1 140 Kbps
Writing application : VirtualDubMod 1.5.10.3 (build 2550/release)
Writing library : VirtualDubMod build 2550/release
Copyright : rip by ivandubskoj
Video
ID : 0
Format : MPEG-4 Visual
Format profile : Advanced Simple@L5
Format settings, BVOP : 2
Format settings, QPel : No
Format settings, GMC : No warppoints
Format settings, Matrix : Custom
Codec ID : XVID
Codec ID/Hint : XviD
Duration : 1h 30mn
Bit rate : 1 002 Kbps
Width : 656 pixels
Height : 368 pixels
Display aspect ratio : 16:9
Frame rate : 25.000 fps
Color space : YUV
Chroma subsampling : 4:2:0
Bit depth : 8 bits
Scan type : Progressive
Compression mode : Lossy
Bits/(Pixel*Frame) : 0.166
Stream size : 647 MiB (88%)
Writing library : XviD 73
Audio
ID : 1
Format : MPEG Audio
Format version : Version 1
Format profile : Layer 3
Codec ID : 55
Codec ID/Hint : MP3
Duration : 1h 30mn
Bit rate mode : Constant
Bit rate : 128 Kbps
Channel(s) : 2 channels
Sampling rate : 48.0 KHz
Compression mode : Lossy
Stream size : 82.7 MiB (11%)
Alignment : Aligned on interleaves
Interleave, duration : 40 ms (1.00 video frame)
Interleave, preload duration : 504 ms
Writing library : LAME3.99r
Encoding settings : -m s -V 4 -q 0 -lowpass 17 -b 128
Скриншот c названием фильма Скриншоты
Скачать

Скачать торрент!

Как скачивать? · Что такое торрент? · Рейтинг и ограничения

Сайт не распространяет и не хранит электронные версии произведений, а лишь предоставляет доступ к создаваемому пользователями каталогу ссылок на торрент-файлы, которые содержат только списки хеш-сумм

[Профиль] [ЛС]
Показать сообщения:    
Ответить на тему

Текущее время: Сегодня 10:10

Часовой пояс: GMT + 4



Вы не можете начинать темы
Вы не можете отвечать на сообщения
Вы не можете редактировать свои сообщения
Вы не можете удалять свои сообщения
Вы не можете голосовать в опросах
Вы не можете прикреплять файлы к сообщениям
Вы не можете скачивать файлы