Храбрые сердца: Морские обезьяны / Brave Hearts: Umizaru (Эйитиро Хасуми / Eiichiro Hasumi) [2012, Япония, боевик, HDRip] VO [den904]

Ответить на тему
 
Автор Сообщение

user ®

Стаж: 13 лет

Сообщений: 15071

Пост Пост: #1 от 28-Дек-2014 23:00

[Цитировать]

Храбрые сердца: Морские обезьяны / Brave Hearts: Umizaru- -Страна: Япония
Жанр: боевик
Год выпуска: 2012
Продолжительность: 01:55:41-Перевод: Одноголосый закадровый [den904] по переводу: iliyas-Cубтитры: нет
Оригинальная аудиодорожка: нет
Режиссер: Эйитиро Хасуми / Eiichiro Hasumi
В ролях: Хидеаки Ито, Аи Като, Рюта Сато, Рииса Нака, Шохей Миура, Yasushi Furukawa, Хироюки Хираяма, Юкидзиро Хотару, Цуеши Ихара, Сатоси Дзинбо...
Описание: Мика является стюардессой на борту самолета, который, как намечают, приземлится в Аэропорту Ханеда. На пути к аэропорту один из двигателей аэробуса начинает гореть и самолет совершает аварийную посадку в море. Чтобы спасти 346 человек на борту самолета, морской офицер Даисуке Сензаке и его команда должны прийти на помощь людям.
Релиз от -
Сэмпл: http://multi-up.com/1023246
Качество видео: HDRip
Формат видео: AVI
Видео: MPEG-4 Visual at 768 Кбит/сек; 688 x 288 (2.389) at 24.000 fps
Аудио: MPEG Audio at 128 Кбит/сек; 2 канала, 48,0 КГц
Автор -
MediaInfo
Общее
Полное имя : D:\Фильмы\Азиатские\Храбрые сердца Морские обезьяны\Brave Hearts.Umizaru.2012.HDRip.XviD.745MB. rip by [Assassin's Creed].avi
Формат : AVI
Формат/Информация : Audio Video Interleave
Размер файла : 749 Мбайт
Продолжительность : 1 ч. 55 м.
Общий поток : 905 Кбит/сек
Программа кодирования : VirtualDubMod 1.5.10.3 | www.virtualdub-fr.org || (build 2550/release)
Библиотека кодирования : VirtualDubMod build 2550/release
Видео
Идентификатор : 0
Формат : MPEG-4 Visual
Профиль формата : Advanced Simple@L5
Параметр BVOP формата : 1
Параметр QPel формата : Нет
Параметр GMC формата : Без точки перехода
Параметр матрицы формата : Default (MPEG)
Идентификатор кодека : XVID
Идентификатор кодека/Подсказка : XviD
Продолжительность : 1 ч. 55 м.
Битрейт : 768 Кбит/сек
Ширина : 688 пикселей
Высота : 288 пикселей
Соотношение сторон : 2,40:1
Частота кадров : 24,000 кадра/сек
Цветовое пространство : YUV
Субдискретизация насыщенности : 4:2:0
Битовая глубина : 8 бит
Тип развёртки : Прогрессивная
Метод сжатия : С потерями
Бит/(Пиксели*Кадры) : 0.161
Размер потока : 635 Мбайт (85%)
Библиотека кодирования : XviD 1.2.1 (UTC 2008-12-04)
Аудио
Идентификатор : 1
Формат : MPEG Audio
Версия формата : Version 1
Профиль формата : Layer 3
Идентификатор кодека : 55
Идентификатор кодека/Подсказка : MP3
Продолжительность : 1 ч. 55 м.
Вид битрейта : Постоянный
Битрейт : 128 Кбит/сек
Каналы : 2 канала
Частота : 48,0 КГц
Метод сжатия : С потерями
Размер потока : 106 Мбайт (14%)
Выравнивание : Соединение по промежуткам
Продолжительность промежутка : 42 мс. (1,00 видеокадр)
Время предзагрузки промежутка : 504 мс.
Библиотека кодирования : LAME3.99r
Настройки программы : -m s -V 4 -q 2 -lowpass 17 -b 128
Скриншот c названием фильма Скриншоты
Скачать

Скачать торрент! Храбрые сердца: Морские обезьяны / Brave Hearts: Umizaru (Эйитиро Хасуми / Eiichiro Hasumi) [2012, Япония, боевик, HDRip] VO [den904]

Как скачивать? · Что такое торрент? · Рейтинг и ограничения

Сайт не распространяет и не хранит электронные версии произведений, а лишь предоставляет доступ к создаваемому пользователями каталогу ссылок на торрент-файлы, которые содержат только списки хеш-сумм

[Профиль] [ЛС]
Показать сообщения:    
Ответить на тему

Текущее время: Сегодня 17:04

Часовой пояс: GMT + 4



Вы не можете начинать темы
Вы не можете отвечать на сообщения
Вы не можете редактировать свои сообщения
Вы не можете удалять свои сообщения
Вы не можете голосовать в опросах
Вы не можете прикреплять файлы к сообщениям
Вы не можете скачивать файлы