Никаких добрых дел / No Good Deed (Сэм Миллер / Sam Miller) [2014, США, триллер, криминал, BDRip 720p] MVO + Sub Eng + Original Eng

Ответить на тему
 
Автор Сообщение

user ®

Стаж: 7 лет 7 месяцев

Сообщений: 20008

Пост Пост: #1 от 28-Дек-2014 23:00

[Цитировать]

Никаких добрых дел / No Good Deed Страна: США
Студия: Screen Gems, Will Packer Productions
Жанр: триллер, криминал
Год выпуска: 2014
Продолжительность: 01:23:52
Перевод: Профессиональный (многоголосый закадровый) iTunes
Cубтитры: английские (full, SDH)
Оригинальная аудиодорожка: английский
Режиссер: Сэм Миллер / Sam Miller
В ролях: Идрис Эльба, Тараджи П. Хенсон, Лесли Бибб, Кейт дель Кастильо, Генри Симмонс, Mirage Moonschein, Кенни Альфонсо, Дэн Кодилл, Татом Пендер, Келли О’Нил
Описание: В центре повествования женщина-прокурор, решившая стать домохозяйкой. Однако детей героини похищают после того, как она приглашает в дом симпатичного незнакомца, дожидавшегося неподалеку эвакуатора.

Тип релиза: BDRip 720p [HDAccess]
Контейнер: MKV
Видео: AVC, 1280x534, 8500 kbps, 23.976 fps
Аудио 1: Russian: 48 kHz, AC3, 3/2 (L,C,R,l,r) + LFE ch, ~384.00 kbps avg |iTunes|
Аудио 2: English: 48 kHz, AC3, 3/2 (L,C,R,l,r) + LFE ch, ~640.00 kbps avg |Original|
Чаптеры: есть

x264 log
x264 : frame I:1399 Avg QP:11.78 size:118143
x264 : frame P:25734 Avg QP:12.78 size: 66391
x264 : frame B:93539 Avg QP:13.19 size: 40703
x264 : consecutive B-frames: 2.5% 3.5% 6.3% 17.7% 19.5% 32.7% 8.8% 5.3% 3.7%
MediaInfo
General
Unique ID : 253444647576823773343733156825715573677 (0xBEABA9E1C6234F5CB9CBEF98788A03AD)
Complete name : D:\рипы\No.Good.Deed.2014.720p.BluRay.DD5.1.x264-Talian-.mkv
Format : Matroska
Format version : Version 2
File size : 5.89 GiB
Duration : 1h 23mn
Overall bit rate : 10.1 Mbps
Movie name : No Good Deed-Talian-
Encoded date : UTC 2014-12-27 13:53:12
Writing application : mkvmerge v5.7.0 ('The Whirlwind') built on Jul 8 2012 20:08:51
Writing library : libebml v1.2.3 + libmatroska v1.3.0
Video
ID : 1
Format : AVC
Format/Info : Advanced Video Codec
Format profile : High@L4.1
Format settings, CABAC : Yes
Format settings, ReFrames : 12 frames
Codec ID : V_MPEG4/ISO/AVC
Duration : 1h 23mn
Bit rate : 8 832 Kbps
Width : 1 280 pixels
Height : 534 pixels
Display aspect ratio : 2.40:1
Frame rate : 23.976 fps
Color space : YUV
Chroma subsampling : 4:2:0
Bit depth : 8 bits
Scan type : Progressive
Bits/(Pixel*Frame) : 0.539
Stream size : 5.18 GiB (88%)
Title : HDAccess
Writing library : x264 core 142 r2431kMod ac76440
Encoding settings : cabac=1 / ref=12 / deblock=1:-3:-3 / analyse=0x3:0x133 / me=umh / subme=11 / psy=1 / fade_compensate=0.00 / psy_rd=1.05:0.00 / mixed_ref=1 / me_range=24 / chroma_me=1 / trellis=2 / 8x8dct=1 / cqm=0 / deadzone=21,11 / fast_pskip=0 / chroma_qp_offset=-2 / threads=24 / lookahead_threads=4 / sliced_threads=0 / nr=0 / decimate=0 / interlaced=0 / bluray_compat=0 / constrained_intra=0 / fgo=0 / bframes=8 / b_pyramid=2 / b_adapt=2 / b_bias=0 / direct=3 / weightb=1 / open_gop=0 / weightp=2 / keyint=250 / keyint_min=23 / scenecut=40 / intra_refresh=0 / rc=crf / mbtree=0 / crf=15.0000 / qcomp=0.70 / qpmin=0 / qpmax=69 / qpstep=4 / ip_ratio=1.20 / pb_ratio=1.10 / aq=3:0.85
Language : English
Default : Yes
Forced : No
Audio #1
ID : 2
Format : AC-3
Format/Info : Audio Coding 3
Mode extension : CM (complete main)
Format settings, Endianness : Big
Codec ID : A_AC3
Duration : 1h 23mn
Bit rate mode : Constant
Bit rate : 384 Kbps
Channel(s) : 6 channels
Channel positions : Front: L C R, Side: L R, LFE
Sampling rate : 48.0 KHz
Bit depth : 16 bits
Compression mode : Lossy
Stream size : 230 MiB (4%)
Title : MVO-iTunes
Language : Russian
Default : Yes
Forced : No
Audio #2
ID : 3
Format : AC-3
Format/Info : Audio Coding 3
Mode extension : CM (complete main)
Format settings, Endianness : Big
Codec ID : A_AC3
Duration : 1h 23mn
Bit rate mode : Constant
Bit rate : 640 Kbps
Channel(s) : 6 channels
Channel positions : Front: L C R, Side: L R, LFE
Sampling rate : 48.0 KHz
Bit depth : 16 bits
Compression mode : Lossy
Stream size : 384 MiB (6%)
Title : Original
Language : English
Default : No
Forced : No
Text #1
ID : 4
Format : UTF-8
Codec ID : S_TEXT/UTF8
Codec ID/Info : UTF-8 Plain Text
Title : Sub-full
Language : English
Default : No
Forced : No
Text #2
ID : 5
Format : UTF-8
Codec ID : S_TEXT/UTF8
Codec ID/Info : UTF-8 Plain Text
Title : Sub-SDH
Language : English
Default : No
Forced : No
Menu
00:00:00.000 : en:00:00:00.000
00:07:43.713 : en:00:07:43.713
00:13:47.994 : en:00:13:47.994
00:18:16.220 : en:00:18:16.220
00:23:17.187 : en:00:23:17.187
00:28:47.684 : en:00:28:47.684
00:32:50.135 : en:00:32:50.135
00:38:17.170 : en:00:38:17.170
00:43:39.450 : en:00:43:39.450
00:47:30.514 : en:00:47:30.514
00:52:32.983 : en:00:52:32.983
00:58:31.007 : en:00:58:31.007
01:03:35.603 : en:01:03:35.603
01:08:52.754 : en:01:08:52.754
01:14:03.397 : en:01:14:03.397
01:19:33.727 : en:01:19:33.727
Скриншоты
Source vs Encode


Скачать

Скачать торрент!

Как скачивать? · Что такое торрент? · Рейтинг и ограничения

Сайт не распространяет и не хранит электронные версии произведений, а лишь предоставляет доступ к создаваемому пользователями каталогу ссылок на торрент-файлы, которые содержат только списки хеш-сумм

[Профиль] [ЛС]
Показать сообщения:    
Ответить на тему

Текущее время: Сегодня 20:32

Часовой пояс: GMT + 4



Вы не можете начинать темы
Вы не можете отвечать на сообщения
Вы не можете редактировать свои сообщения
Вы не можете удалять свои сообщения
Вы не можете голосовать в опросах
Вы не можете прикреплять файлы к сообщениям
Вы не можете скачивать файлы