Бегущий в лабиринте / The Maze Runner (Уэс Болл / Wes Ball) [2014, США, Фантастика, триллер, приключения, BDRemux 1080p] Dub + VO (Есарев) + Sub Rus, Ukr, Eng + Original Eng

Ответить на тему
 
Автор Сообщение

user ®

Стаж: 7 лет 7 месяцев

Сообщений: 20008

Пост Пост: #1 от 28-Дек-2014 23:00

[Цитировать]

Бегущий в лабиринте / The Maze Runner Страна: США
Студия: 20th Century Fox, Gotham Group, Temple Hill Entertainment
Жанр: Фантастика, триллер, приключения
Год выпуска: 2014
Продолжительность: 01:53:26
Перевод 1: Профессиональный (дублированный) Blu-ray EUR
Перевод 2: Одноголосый (закадровый) Есарев
Cубтитры: русские, украинские, английские (full, SDH, SDH Colored, Commentary)
Оригинальная аудиодорожка: английский
Режиссер: Уэс Болл / Wes Ball
В ролях: Дилан О’Брайен, Томас Сэнгстер, Кая Скоделарио, Уилл Поултер, Ки Хонг Ли, Блейк Купер, Амл Амин, Алекс Дж. Флорес, Джейкоб Латимор, Патришия Кларксон
Описание: Главный герой — подросток Томас, который просыпается в лифте, но ничего не помнит, кроме своего имени. Он оказывается среди 60 подростков, научившихся выживать в замкнутом пространстве. Раз в 30 дней прибывает новый мальчик. Группа ребят проживает в «Приюте» уже три года. Они кормятся тем, что удается вырастить на земле, и пытаются найти выход из лабиринта, окружающего их место жительства. Но однажды появляется девочка в состоянии комы...

Тип релиза: BDRemux 1080p
Контейнер: MKV
Видео: AVC, 1920x1080,23277 kbps, 23.976 fps
Аудио 1: Russian: 48 kHz, DTS, 3/2 (L,C,R,l,r) + LFE ch, ~768.00 kbps avg |Blu-ray EUR|
Аудио 2: Ukrainian: 48 kHz, AC3, 2/0 (L,R) ch, ~192.00 kbps avg |iTunes|
Аудио 3: Russian: DTS-HD Master Audio Russian / 7.1 / 48 kHz / 5590 kbps / 24-bit (DTS Core: 5.1 / 48 kHz / 1509 kbps / 24-bit) |Есарев|
Аудио 4: English: DTS-HD Master Audio Russian / 7.1 / 48 kHz / 5640 kbps / 24-bit (DTS Core: 5.1 / 48 kHz / 1509 kbps / 24-bit) |Original|
Аудио 5: English: 48 kHz, AC3, 2/0 (L,R) ch, ~224.00 kbps avg |Commentary by Wes Ball and T.S. Nowlin|
Чаптеры: есть

Доп.информация
Перевод Дмитрия Есарева, доступен благодаря: mihaildns, Skazhutin, mihey10, Mr. X, norton.n, Start.Point, будулайроманов, igrok2012, timur, shurikken, Loki1982
MediaInfo
General
Unique ID : 202668846848628414545293282327949412064 (0x9878999FC30034568E34BAB586F706E0)
Complete name : D:\The.Maze.Runner.2014.1080p.BluRay.REMUX.AVC.DTS-HD.7.1-Talian-.mkv
Format : Matroska
Format version : Version 2
File size : 28.3 GiB
Duration : 1h 53mn
Overall bit rate mode : Variable
Overall bit rate : 35.8 Mbps
Movie name : The Maze Runner-Talian-
Encoded date : UTC 2014-12-27 11:21:55
Writing application : mkvmerge v5.7.0 ('The Whirlwind') built on Jul 8 2012 20:08:51
Writing library : libebml v1.2.3 + libmatroska v1.3.0
Video
ID : 1
Format : AVC
Format/Info : Advanced Video Codec
Format profile : High@L4.1
Format settings, CABAC : Yes
Format settings, ReFrames : 2 frames
Codec ID : V_MPEG4/ISO/AVC
Duration : 1h 53mn
Bit rate mode : Variable
Bit rate : 30.6 Mbps
Width : 1 920 pixels
Height : 1 080 pixels
Display aspect ratio : 16:9
Frame rate : 23.976 fps
Color space : YUV
Chroma subsampling : 4:2:0
Bit depth : 8 bits
Scan type : Progressive
Bits/(Pixel*Frame) : 0.616
Stream size : 24.3 GiB (86%)
Title : BDRemux
Language : English
Default : Yes
Forced : No
Audio #1
ID : 2
Format : DTS
Format/Info : Digital Theater Systems
Codec ID : A_DTS
Duration : 1h 53mn
Bit rate mode : Constant
Bit rate : 755 Kbps
Channel(s) : 6 channels
Channel positions : Front: L C R, Side: L R, LFE
Sampling rate : 48.0 KHz
Bit depth : 24 bits
Compression mode : Lossy
Stream size : 612 MiB (2%)
Title : Blu-ray EUR
Language : Russian
Default : Yes
Forced : No
Audio #2
ID : 3
Format : AC-3
Format/Info : Audio Coding 3
Mode extension : CM (complete main)
Format settings, Endianness : Big
Codec ID : A_AC3
Duration : 1h 53mn
Bit rate mode : Constant
Bit rate : 192 Kbps
Channel(s) : 2 channels
Channel positions : Front: L R
Sampling rate : 48.0 KHz
Bit depth : 16 bits
Compression mode : Lossy
Stream size : 156 MiB (1%)
Title : DUB- iTunes
Language : Ukrainian
Default : No
Forced : No
Audio #3
ID : 4
Format : DTS
Format/Info : Digital Theater Systems
Format profile : MA / Core
Codec ID : A_DTS
Duration : 1h 53mn
Bit rate mode : Variable
Bit rate : 1 669 Kbps / 1 510 Kbps
Channel(s) : 8 channels / 6 channels
Channel positions : Front: L C R, Side: L R, Back: L R, LFE / Front: L C R, Side: L R, LFE
Sampling rate : 48.0 KHz
Bit depth : 24 bits
Compression mode : Lossless / Lossy
Title : VO-Есарев
Language : Russian
Default : No
Forced : No
Audio #4
ID : 5
Format : DTS
Format/Info : Digital Theater Systems
Format profile : MA / Core
Codec ID : A_DTS
Duration : 1h 53mn
Bit rate mode : Variable
Bit rate : 1 597 Kbps / 1 510 Kbps
Channel(s) : 8 channels / 6 channels
Channel positions : Front: L C R, Side: L R, Back: L R, LFE / Front: L C R, Side: L R, LFE
Sampling rate : 48.0 KHz
Bit depth : 24 bits
Compression mode : Lossless / Lossy
Title : Original
Language : English
Default : No
Forced : No
Audio #5
ID : 6
Format : AC-3
Format/Info : Audio Coding 3
Mode extension : CM (complete main)
Format settings, Endianness : Big
Codec ID : A_AC3
Duration : 1h 53mn
Bit rate mode : Constant
Bit rate : 224 Kbps
Channel(s) : 2 channels
Channel positions : Front: L R
Sampling rate : 48.0 KHz
Bit depth : 16 bits
Compression mode : Lossy
Stream size : 182 MiB (1%)
Title : Commentary by Wes Ball and T.S. Nowlin
Language : English
Default : No
Forced : No
Text #1
ID : 7
Format : UTF-8
Codec ID : S_TEXT/UTF8
Codec ID/Info : UTF-8 Plain Text
Title : Sub
Language : Russian
Default : No
Forced : No
Text #2
ID : 8
Format : UTF-8
Codec ID : S_TEXT/UTF8
Codec ID/Info : UTF-8 Plain Text
Title : Sub
Language : Ukrainian
Default : No
Forced : No
Text #3
ID : 9
Format : UTF-8
Codec ID : S_TEXT/UTF8
Codec ID/Info : UTF-8 Plain Text
Title : Sub-full
Language : English
Default : No
Forced : No
Text #4
ID : 10
Format : UTF-8
Codec ID : S_TEXT/UTF8
Codec ID/Info : UTF-8 Plain Text
Title : Sub-SDH
Language : English
Default : No
Forced : No
Text #5
ID : 11
Format : UTF-8
Codec ID : S_TEXT/UTF8
Codec ID/Info : UTF-8 Plain Text
Title : Sub-SDH-COLORED
Language : English
Default : No
Forced : No
Text #6
ID : 12
Format : UTF-8
Codec ID : S_TEXT/UTF8
Codec ID/Info : UTF-8 Plain Text
Title : Sub-Commentary
Language : English
Default : No
Forced : No
Menu
00:00:00.000 : 00:00:00.000
00:03:12.651 : 00:03:12.651
00:07:15.977 : 00:07:15.977
00:10:25.250 : 00:10:25.250
00:14:15.563 : 00:14:15.563
00:17:21.249 : 00:17:21.249
00:19:33.339 : 00:19:33.339
00:23:21.025 : 00:23:21.025
00:24:36.392 : 00:24:36.392
00:28:13.108 : 00:28:13.108
00:31:26.009 : 00:31:26.009
00:34:12.050 : 00:34:12.050
00:37:11.813 : 00:37:11.813
00:41:00.875 : 00:41:00.875
00:42:16.617 : 00:42:16.617
00:45:47.453 : 00:45:47.453
00:48:31.826 : 00:48:31.826
00:52:57.800 : 00:52:57.800
00:55:21.777 : 00:55:21.777
00:57:58.809 : 00:57:58.809
00:59:31.151 : 00:59:31.151
01:01:35.275 : 01:01:35.275
01:05:13.910 : 01:05:13.910
01:08:42.410 : 01:08:42.410
01:12:14.247 : 01:12:14.247
01:14:22.833 : 01:14:22.833
01:20:27.823 : 01:20:27.823
01:22:25.649 : 01:22:25.649
01:25:38.175 : 01:25:38.175
01:29:41.585 : 01:29:41.585
01:33:49.457 : 01:33:49.457
01:36:43.256 : 01:36:43.256
01:39:33.426 : 01:39:33.426
01:43:05.596 : 01:43:05.596
01:45:08.219 : 01:45:08.219
01:46:12.658 : 01:46:12.658
Скриншоты
Скачать

Скачать торрент!

Как скачивать? · Что такое торрент? · Рейтинг и ограничения

Сайт не распространяет и не хранит электронные версии произведений, а лишь предоставляет доступ к создаваемому пользователями каталогу ссылок на торрент-файлы, которые содержат только списки хеш-сумм

[Профиль] [ЛС]
Показать сообщения:    
Ответить на тему

Текущее время: Сегодня 08:13

Часовой пояс: GMT + 4



Вы не можете начинать темы
Вы не можете отвечать на сообщения
Вы не можете редактировать свои сообщения
Вы не можете удалять свои сообщения
Вы не можете голосовать в опросах
Вы не можете прикреплять файлы к сообщениям
Вы не можете скачивать файлы