Берега любви (Андрей Селиванов) [2013, Мелодрама, HDTVRip]

Ответить на тему
 
Автор Сообщение

user ®

Стаж: 7 лет 7 месяцев

Сообщений: 20008

Пост Пост: #1 от 28-Дек-2014 23:00

[Цитировать]

Берега любви
Жанр: Мелодрама
Год выпуска: 2013
Продолжительность: 01:31:16
Режиссёр: Андрей Селиванов
В ролях: Анна Ардова, Ярослав Бойко, Анатолий Лобоцкий, Карина Карпухина, Алина Кизиярова, Людмила Пошехонова, Михаил Левченко, Наталья Асанкина, Павел Лемешко, Пётр Рабчевский
Описание: Вера - ответственная и бойкая деревенская труженица, из тех, что “коня на скаку остановят». Она и бакещица, и егерь, и пасечник - и бессменный блюститель порядка. Везде Вера успевает - вот только в личной жизни счастья нет. Муж изменяет ей, и, прогнав его, героиня остается одна с дочерьми. Кажется, никаких перемен в жизни Веры не предвидится, но неожиданно в деревню приезжает доктор из города. Он сразу же отмечает, что перед ним не командир в юбке, а красивая женщина...

Качество видео: HDTVRip [Исходник: HDTV (1080i)]
Формат видео: AVI
Видео: XviD, 1003 Кбит/с, 656x368 (16:9), 25 кадр/с
Аудио: Русский, MP3, 48000 Гц, 128 Кбит/с, 2 канала (Стерео)

Автор рипа - ivandubskoj
MediaInfo
General
Complete name : Berega.lubvi.2013.HDTVRip.745MB.avi
Format : AVI
Format/Info : Audio Video Interleave
File size : 745 MiB
Duration : 1h 31mn
Overall bit rate : 1 141 Kbps
Writing application : VirtualDubMod 1.5.10.3 (build 2550/release)
Writing library : VirtualDubMod build 2550/release
Copyright : rip by ivandubskoj
Video
ID : 0
Format : MPEG-4 Visual
Format profile : Advanced Simple@L5
Format settings, BVOP : 2
Format settings, QPel : No
Format settings, GMC : No warppoints
Format settings, Matrix : Custom
Codec ID : XVID
Codec ID/Hint : XviD
Duration : 1h 31mn
Bit rate : 1 003 Kbps
Width : 656 pixels
Height : 368 pixels
Display aspect ratio : 16:9
Frame rate : 25.000 fps
Color space : YUV
Chroma subsampling : 4:2:0
Bit depth : 8 bits
Scan type : Progressive
Compression mode : Lossy
Bits/(Pixel*Frame) : 0.166
Stream size : 655 MiB (88%)
Writing library : XviD 73
Audio
ID : 1
Format : MPEG Audio
Format version : Version 1
Format profile : Layer 3
Codec ID : 55
Codec ID/Hint : MP3
Duration : 1h 31mn
Bit rate mode : Constant
Bit rate : 128 Kbps
Channel(s) : 2 channels
Sampling rate : 48.0 KHz
Compression mode : Lossy
Stream size : 83.6 MiB (11%)
Alignment : Aligned on interleaves
Interleave, duration : 40 ms (1.00 video frame)
Interleave, preload duration : 504 ms
Writing library : LAME3.99r
Encoding settings : -m s -V 4 -q 0 -lowpass 17 -b 128
Скриншот c названием фильма Скриншоты
Скачать

Скачать торрент!

Как скачивать? · Что такое торрент? · Рейтинг и ограничения

Сайт не распространяет и не хранит электронные версии произведений, а лишь предоставляет доступ к создаваемому пользователями каталогу ссылок на торрент-файлы, которые содержат только списки хеш-сумм

[Профиль] [ЛС]
Показать сообщения:    
Ответить на тему

Текущее время: Сегодня 14:35

Часовой пояс: GMT + 4



Вы не можете начинать темы
Вы не можете отвечать на сообщения
Вы не можете редактировать свои сообщения
Вы не можете удалять свои сообщения
Вы не можете голосовать в опросах
Вы не можете прикреплять файлы к сообщениям
Вы не можете скачивать файлы