Ой, мороз, мороз! (Николай Щербаков) [2005 г., Комедия, DVDRip]

Ответить на тему
 
Автор Сообщение

user ®

Стаж: 7 лет 7 месяцев

Сообщений: 20008

Пост Пост: #1 от 28-Дек-2014 19:50

[Цитировать]

Ой, мороз, мороз!
Год выпуска: 2005
Жанр: Комедия
Продолжительность: 01:35:16
Субтитры: нет
Выпущено: Продюсерский центр Утес
Режиссер: Николай Щербаков
В ролях: Владимир Епифанцев, Стася Задорожная, Ирина Шипова, Павел Лысенок, народная артистка РФ Раиса Рязанова, заслуженные артисты РФ: Роман Мадянов, Виктор Проскурин, Борис Клюев и Валерий Гаркалин, Сергей Кагадеев и др.
Описание: Иногда, чтобы исправить свою судьбу, полезно сыграть роль другого человека. Жизнь героя этой взрослой сказки действительно зашла в тупик. Он – бывший офицер спецназа, отбывающий срок по ложному обвинению. Уже несколько лет подряд в канун Нового года он бежит из колонии, чтобы отомстить… Однако у судьбы свои планы и в этот раз все будет совсем иначе. Роль Деда Мороза, которую по воле случая придется сыграть герою, позволит ему посмотреть на себя со стороны, научит дарить радость другим, и вернет удачу и счастье в его собственную жизнь.- | Сэмпл |-Качество: DVDRip
Формат: AVI
Видео кодек: XviD
Аудио кодек: АС3
Видео: 688x400 (1.72:1), 25 fps, XviD ~1987 kbps, 0.29 bit/pixel
Аудио: 48.0 KHz, AC3, 2 ch, 192 Kbps

Скриншоты видео Отчет MI
GeneralComplete name : Oi.moroz.moroz_2005_Olu6ka.aviFormat : AVIFormat/Info : Audio Video InterleaveFile size : 1.46 GiBDuration : 1h 35mnOverall bit rate : 2 189 KbpsWriting application : VirtualDubMod 1.5.10.3 |Writing library : VirtualDubMod build 2550/release
VideoID : 0Format : MPEG-4 VisualFormat profile : Advanced Simple@L5Format settings, BVOP : 1Format settings, QPel : NoFormat settings, GMC : No warppointsFormat settings, Matrix : CustomCodec ID : XVIDCodec ID/Hint : XviDDuration : 1h 35mnBit rate : 1 988 KbpsWidth : 688 pixelsHeight : 400 pixelsDisplay aspect ratio : 1.720Frame rate : 25.000 fpsColor space : YUVChroma subsampling : 4:2:0Bit depth : 8 bitsScan type : ProgressiveCompression mode : LossyBits/(Pixel*Frame) : 0.289Stream size : 1.32 GiB (91%)Writing library : XviD 73
AudioID : 1Format : AC-3Format/Info : Audio Coding 3Mode extension : CM (complete main)Format settings, Endianness : BigCodec ID : 2000Duration : 1h 35mnBit rate mode : ConstantBit rate : 192 KbpsChannel count : 2 channelsChannel positions : Front: L RSampling rate : 48.0 KHzBit depth : 16 bitsCompression mode : LossyStream size : 131 MiB (9%)Alignment : Split accross interleavesInterleave, duration : 40 ms (1.00 video frame)Interleave, preload duration : 500 ms
Сравнение

[url=http://***/forum/viewtopic.php?t=1407483]http://***/forum/viewtopic.php?t=1407483[/url]
Аспект - wowik77

Данный релиз

Перекроп, апскейл
http://screenshotcomparison.com/comparison/106203
Спасибо cccp16 за DVD5Релиз от группы
Скачать

Скачать торрент!

Как скачивать? · Что такое торрент? · Рейтинг и ограничения

Сайт не распространяет и не хранит электронные версии произведений, а лишь предоставляет доступ к создаваемому пользователями каталогу ссылок на торрент-файлы, которые содержат только списки хеш-сумм

[Профиль] [ЛС]
Показать сообщения:    
Ответить на тему

Текущее время: Сегодня 18:30

Часовой пояс: GMT + 4



Вы не можете начинать темы
Вы не можете отвечать на сообщения
Вы не можете редактировать свои сообщения
Вы не можете удалять свои сообщения
Вы не можете голосовать в опросах
Вы не можете прикреплять файлы к сообщениям
Вы не можете скачивать файлы