Дежа Вю / Deja Vu (Юлиуш Махульский / Juliusz Machulski) [1989, СССР, Польша, криминальная комедия, HDTVRip-AVC] Sub Rus, Eng

Ответить на тему
 
Автор Сообщение

user ®

Стаж: 7 лет 7 месяцев

Сообщений: 20008

Пост Пост: #1 от 28-Дек-2014 12:05

[Цитировать]

Дежа Вю / Deja Vu
Страна: СССР, Польша
Жанр: криминальная комедия
Год выпуска: 1989
Продолжительность: 01:44:47
Перевод: профессиональный (одноголосый закадровый) * на места с англоязычной речью
Оригинальная аудиодорожка: русский, английский
Cубтитры: русские, английские
Навигация по главам: нет
Режиссер: Юлиуш Махульский / Juliusz Machulski
В ролях: Ежи Штур, Галина Петрова, Николай Караченцов, Владимир Головин, Елизавета Махульская, Виктор Степанов, Олег Шкловский, Василий Мищенко, Всеволод Сафонов, Виталий Шаповалов, Войцех Высоцкий, Ян Махульский, Войцех Малайкат, Здислав Кузняр, Ян Пьешко, Анатолий Котенёв, Валерий Барда-Скляренко, Никита Высоцкий
Описание: 1925 год. В СССР - НЭП, в США - «сухой закон». Мафия чикагских бутлегеров разыскивает некоего Мика Нича — Микиту Нечипорука, который оказался стукачом. Выясняется, что он сбежал в советскую Одессу, где открывает «великий самогонный путь» по доставке спиртных напитков по побережью Северного Ледовитого океана из России в Америку. Для ликвидации предателя нанимается знаменитый киллер — американский гангстер польского происхождения по фамилии Поллак. Под видом профессора-энтомолога, следующего на Суматру ловить бабочек, Поллак прибывает в Одессу, «чтобы навестить могилу отца».
Доп. информация: Цифровая реставрация (реконструкция) видеоряда. В исходнике, русско-английская многоканальная аудиодорожка - "дутая" (звук только в двух фронтах), поэтому оригинальная аудиодорожка #2 получена Downmix-ом из 5.1 в стерео. Аудиодорожка #1 получена заменой фрагментов с английской речью из аудио #2 на соответствующие фрагменты с русским закадровым переводом с DVD (CP digital), спасибо Quimica. Спасибо за русские субтитры bohdk, AMDG1000.
Качество видео: HDTVRip-AVC |HDTV 1080i|
Формат видео: MKV
Видео: AVC (x264), 1060x640 (1.66:1), ~3585 kbps, 25.000 fps, 0.211 bpp
Аудио 1: AС3, 48 KHz, 2 ch, 192 kbps - Русский | VO * на места с англоязычной речью
Аудио 2: AС3, 48 KHz, 2 ch, 192 kbps - Русский, английский | Оригинал
Формат субтитров: softsub (SRT)

Релиз от: nnlabetik

MediaInfo
Общее
Уникальный идентификатор : 199694838289682465323193749587075573615 (0x963BD3AE6B2958D896927478F6D0A76F)
Полное имя : E:\Rutracker\Дежа Вю Deja Vu 1988\Deja.vu.1989.AVC.nnlabetik_2.91Gb.mkv
Формат : Matroska
Версия формата : Version 4 / Version 2
Размер файла : 2,90 Гбайт
Продолжительность : 1 ч. 44 м.
Общий поток : 3968 Кбит/сек
Название фильма : Дежа Вю / Deja Vu / 1989 -=NN@LIFE=-
Дата кодирования : UTC 2014-12-28 00:00:08
Программа кодирования : mkvmerge v7.4.0 ('Circles') 32bit built on Dec 12 2014 12:10:09
Библиотека кодирования : libebml v1.3.0 + libmatroska v1.4.1
Видео
Идентификатор : 1
Формат : AVC
Формат/Информация : Advanced Video Codec
Профиль формата : High@L4.0
Параметр CABAC формата : Да
Параметр ReFrames формата : 9 кадров
Идентификатор кодека : V_MPEG4/ISO/AVC
Продолжительность : 1 ч. 44 м.
Битрейт : 3584 Кбит/сек
Ширина : 1060 пикселей
Высота : 640 пикселей
Соотношение сторон : 1,656
Режим частоты кадров : Постоянный
Частота кадров : 25,000 кадров/сек
Цветовое пространство : YUV
Субдискретизация насыщенности : 4:2:0
Битовая глубина : 8 бит
Тип развёртки : Прогрессивная
Бит/(Пиксели*Кадры) : 0.211
Размер потока : 2,57 Гбайт (88%)
Заголовок : Rip by nnlabetik
Библиотека кодирования : x264 core 144 r2525 40bb568
Настройки программы : cabac=1 / ref=9 / deblock=1:-3:-2 / analyse=0x3:0x113 / me=umh / subme=11 / psy=1 / psy_rd=1.00:0.00 / mixed_ref=1 / me_range=32 / chroma_me=1 / trellis=2 / 8x8dct=1 / cqm=0 / deadzone=21,11 / fast_pskip=0 / chroma_qp_offset=-2 / threads=6 / lookahead_threads=1 / sliced_threads=0 / nr=0 / decimate=1 / interlaced=0 / bluray_compat=0 / constrained_intra=0 / bframes=16 / b_pyramid=2 / b_adapt=2 / b_bias=0 / direct=3 / weightb=1 / open_gop=0 / weightp=0 / keyint=250 / keyint_min=25 / scenecut=40 / intra_refresh=0 / rc_lookahead=60 / rc=2pass / mbtree=0 / bitrate=3584 / ratetol=1.0 / qcomp=0.60 / qpmin=0 / qpmax=69 / qpstep=4 / cplxblur=20.0 / qblur=0.5 / vbv_maxrate=20000 / vbv_bufsize=25000 / nal_hrd=none / filler=0 / ip_ratio=1.35 / pb_ratio=1.25 / aq=1:1.00
Язык : Polish
Default : Да
Forced : Нет
Основные цвета : BT.601 PAL
Характеристики трансфера : BT.470 System B, BT.470 System G
Коэффициенты матрицы : BT.601
colour_range : Limited
Аудио #1
Идентификатор : 2
Формат : AC-3
Формат/Информация : Audio Coding 3
Расширение режима : CM (complete main)
Параметр Endianness формата : Big
Идентификатор кодека : A_AC3
Продолжительность : 1 ч. 44 м.
Вид битрейта : Постоянный
Битрейт : 192 Кбит/сек
Каналы : 2 канала
Расположение каналов : Front: L R
Частота : 48,0 КГц
Битовая глубина : 16 бит
Метод сжатия : С потерями
Размер потока : 144 Мбайт (5%)
Язык : Russian
Default : Да
Forced : Нет
Аудио #2
Идентификатор : 3
Формат : AC-3
Формат/Информация : Audio Coding 3
Расширение режима : CM (complete main)
Параметр Endianness формата : Big
Идентификатор кодека : A_AC3
Продолжительность : 1 ч. 44 м.
Вид битрейта : Постоянный
Битрейт : 192 Кбит/сек
Каналы : 2 канала
Расположение каналов : Front: L R
Частота : 48,0 КГц
Битовая глубина : 16 бит
Метод сжатия : С потерями
Размер потока : 144 Мбайт (5%)
Заголовок : Original
Язык : English
Default : Нет
Forced : Нет
Текст #1
Идентификатор : 4
Формат : UTF-8
Идентификатор кодека : S_TEXT/UTF8
Идентификатор кодека/Информация : UTF-8 Plain Text
Заголовок : Full
Язык : Russian
Default : Нет
Forced : Нет
Текст #2
Идентификатор : 5
Формат : UTF-8
Идентификатор кодека : S_TEXT/UTF8
Идентификатор кодека/Информация : UTF-8 Plain Text
Заголовок : Forse
Язык : Russian
Default : Нет
Forced : Нет
Текст #3
Идентификатор : 6
Формат : UTF-8
Идентификатор кодека : S_TEXT/UTF8
Идентификатор кодека/Информация : UTF-8 Plain Text
Язык : English
Default : Нет
Forced : Нет
Скриншоты Отдельная благодарность - xfiles, за исходную запись телетрансляции.
Скачать

Скачать торрент!

Как скачивать? · Что такое торрент? · Рейтинг и ограничения

Сайт не распространяет и не хранит электронные версии произведений, а лишь предоставляет доступ к создаваемому пользователями каталогу ссылок на торрент-файлы, которые содержат только списки хеш-сумм

[Профиль] [ЛС]
Показать сообщения:    
Ответить на тему

Текущее время: Сегодня 17:41

Часовой пояс: GMT + 4



Вы не можете начинать темы
Вы не можете отвечать на сообщения
Вы не можете редактировать свои сообщения
Вы не можете удалять свои сообщения
Вы не можете голосовать в опросах
Вы не можете прикреплять файлы к сообщениям
Вы не можете скачивать файлы