Бегущий в лабиринте / The Maze Runner (Уэс Болл / Wes Ball) [2014, США, Фантастика, триллер, приключения, BDRip 720p] Dub + Sub Rus, Ukr, Eng + Original Eng

Ответить на тему
 
Автор Сообщение

user ®

Стаж: 7 лет 7 месяцев

Сообщений: 20008

Пост Пост: #1 от 28-Дек-2014 02:35

[Цитировать]

Бегущий в лабиринте / The Maze Runner Страна: США
Студия: 20th Century Fox, Gotham Group, Temple Hill Entertainment
Жанр: Фантастика, триллер, приключения
Год выпуска: 2014
Продолжительность: 01:53:26
Перевод: Профессиональный (дублированный) Blu-ray EUR
Cубтитры: русские, украинские, английские (full, SDH, SDH Colored, Commentary)
Оригинальная аудиодорожка: английский
Режиссер: Уэс Болл / Wes Ball
В ролях: Дилан О’Брайен, Томас Сэнгстер, Кая Скоделарио, Уилл Поултер, Ки Хонг Ли, Блейк Купер, Амл Амин, Алекс Дж. Флорес, Джейкоб Латимор, Патришия Кларксон
Описание: Главный герой — подросток Томас, который просыпается в лифте, но ничего не помнит, кроме своего имени. Он оказывается среди 60 подростков, научившихся выживать в замкнутом пространстве. Раз в 30 дней прибывает новый мальчик. Группа ребят проживает в «Приюте» уже три года. Они кормятся тем, что удается вырастить на земле, и пытаются найти выход из лабиринта, окружающего их место жительства. Но однажды появляется девочка в состоянии комы...

Тип релиза: BDRip 720p [HDAccess]
Контейнер: MKV
Видео: AVC, 1280x534, 5770kbps, 23.976 fps
Аудио 1: Russian: 48 kHz, DTS, 3/2 (L,C,R,l,r) + LFE ch, ~768.00 kbps avg |Blu-ray EUR|
Аудио 2: Ukrainian: 48 kHz, AC3, 2/0 (L,R) ch, ~192.00 kbps avg |iTunes|
Аудио 3: English: 48 kHz, AC3, 3/2 (L,C,R,l,r) + LFE ch, ~640.00 kbps |Original|
Аудио 4: English: 48 kHz, AC3, 2/0 (L,R) ch, ~224.00 kbps avg |Commentary by Wes Ball and T.S. Nowlin|
Чаптеры:есть

x264 log
x264 : frame I:1217 Avg QP:11.87 size:106681
x264 : frame P:39661 Avg QP:13.10 size: 48310
x264 : frame B:122322 Avg QP:13.66 size: 24430
x264 : consecutive B-frames: 3.3% 4.9% 12.4% 24.1% 15.9% 23.9% 5.9% 7.1% 2.7%
MediaInfo
General
Unique ID : 196951873425669362610508142023574042144 (0x942B8D127D1F8E76853116B13A1C3620)
Complete name : D:\The.Maze.Runner.2014.720p.BluRay.DD5.1.x264-Talian-.mkv
Format : Matroska
Format version : Version 2
File size : 6.14 GiB
Duration : 1h 53mn
Overall bit rate : 7 744 Kbps
Movie name : The Maze Runner-Talian-
Encoded date : UTC 2014-12-23 15:05:57
Writing application : mkvmerge v5.7.0 ('The Whirlwind') built on Jul 8 2012 20:08:51
Writing library : libebml v1.2.3 + libmatroska v1.3.0
Video
ID : 1
Format : AVC
Format/Info : Advanced Video Codec
Format profile : High@L4.1
Format settings, CABAC : Yes
Format settings, ReFrames : 12 frames
Codec ID : V_MPEG4/ISO/AVC
Duration : 1h 53mn
Bit rate : 5 780 Kbps
Width : 1 280 pixels
Height : 534 pixels
Display aspect ratio : 2.40:1
Frame rate : 23.976 fps
Color space : YUV
Chroma subsampling : 4:2:0
Bit depth : 8 bits
Scan type : Progressive
Bits/(Pixel*Frame) : 0.353
Stream size : 4.58 GiB (75%)
Title : HDAccess
Writing library : x264 core 142 r2431kMod ac76440
Encoding settings : cabac=1 / ref=12 / deblock=1:-3:-3 / analyse=0x3:0x133 / me=umh / subme=10 / psy=1 / fade_compensate=0.00 / psy_rd=1.00:0.00 / mixed_ref=1 / me_range=24 / chroma_me=1 / trellis=2 / 8x8dct=1 / cqm=0 / deadzone=21,11 / fast_pskip=0 / chroma_qp_offset=-2 / threads=24 / lookahead_threads=4 / sliced_threads=0 / nr=0 / decimate=0 / interlaced=0 / bluray_compat=0 / constrained_intra=0 / fgo=0 / bframes=8 / b_pyramid=2 / b_adapt=2 / b_bias=0 / direct=3 / weightb=1 / open_gop=0 / weightp=2 / keyint=250 / keyint_min=23 / scenecut=40 / intra_refresh=0 / rc=crf / mbtree=0 / crf=15.5000 / qcomp=0.70 / qpmin=0 / qpmax=69 / qpstep=4 / ip_ratio=1.20 / pb_ratio=1.10 / aq=3:0.80
Language : English
Default : Yes
Forced : No
Audio #1
ID : 2
Format : DTS
Format/Info : Digital Theater Systems
Codec ID : A_DTS
Duration : 1h 53mn
Bit rate mode : Constant
Bit rate : 755 Kbps
Channel(s) : 6 channels
Channel positions : Front: L C R, Side: L R, LFE
Sampling rate : 48.0 KHz
Bit depth : 24 bits
Compression mode : Lossy
Stream size : 612 MiB (10%)
Title : Blu-ray EUR
Language : Russian
Default : Yes
Forced : No
Audio #2
ID : 3
Format : AC-3
Format/Info : Audio Coding 3
Mode extension : CM (complete main)
Format settings, Endianness : Big
Codec ID : A_AC3
Duration : 1h 53mn
Bit rate mode : Constant
Bit rate : 192 Kbps
Channel(s) : 2 channels
Channel positions : Front: L R
Sampling rate : 48.0 KHz
Bit depth : 16 bits
Compression mode : Lossy
Stream size : 156 MiB (2%)
Title : DUB- iTunes
Language : Ukrainian
Default : No
Forced : No
Audio #3
ID : 4
Format : AC-3
Format/Info : Audio Coding 3
Mode extension : CM (complete main)
Format settings, Endianness : Big
Codec ID : A_AC3
Duration : 1h 53mn
Bit rate mode : Constant
Bit rate : 640 Kbps
Channel(s) : 6 channels
Channel positions : Front: L C R, Side: L R, LFE
Sampling rate : 48.0 KHz
Bit depth : 16 bits
Compression mode : Lossy
Stream size : 519 MiB (8%)
Title : Original
Language : English
Default : No
Forced : No
Audio #4
ID : 5
Format : AC-3
Format/Info : Audio Coding 3
Mode extension : CM (complete main)
Format settings, Endianness : Big
Codec ID : A_AC3
Duration : 1h 53mn
Bit rate mode : Constant
Bit rate : 224 Kbps
Channel(s) : 2 channels
Channel positions : Front: L R
Sampling rate : 48.0 KHz
Bit depth : 16 bits
Compression mode : Lossy
Stream size : 182 MiB (3%)
Title : Commentary by Wes Ball and T.S. Nowlin
Language : English
Default : No
Forced : No
Text #1
ID : 6
Format : UTF-8
Codec ID : S_TEXT/UTF8
Codec ID/Info : UTF-8 Plain Text
Title : Sub
Language : Russian
Default : No
Forced : No
Text #2
ID : 7
Format : UTF-8
Codec ID : S_TEXT/UTF8
Codec ID/Info : UTF-8 Plain Text
Title : Sub
Language : Ukrainian
Default : No
Forced : No
Text #3
ID : 8
Format : UTF-8
Codec ID : S_TEXT/UTF8
Codec ID/Info : UTF-8 Plain Text
Title : Sub-full
Language : English
Default : No
Forced : No
Text #4
ID : 9
Format : UTF-8
Codec ID : S_TEXT/UTF8
Codec ID/Info : UTF-8 Plain Text
Title : Sub-SDH
Language : English
Default : No
Forced : No
Text #5
ID : 10
Format : UTF-8
Codec ID : S_TEXT/UTF8
Codec ID/Info : UTF-8 Plain Text
Title : Sub-SDH-COLORED
Language : English
Default : No
Forced : No
Text #6
ID : 11
Format : UTF-8
Codec ID : S_TEXT/UTF8
Codec ID/Info : UTF-8 Plain Text
Title : Sub-Commentary
Language : English
Default : No
Forced : No
Menu
00:00:00.000 : en:00:00:00.000
00:03:12.651 : en:00:03:12.651
00:07:15.977 : en:00:07:15.977
00:10:25.250 : en:00:10:25.250
00:14:15.563 : en:00:14:15.563
00:17:21.249 : en:00:17:21.249
00:19:33.339 : en:00:19:33.339
00:23:21.025 : en:00:23:21.025
00:24:36.392 : en:00:24:36.392
00:28:13.108 : en:00:28:13.108
00:31:26.009 : en:00:31:26.009
00:34:12.050 : en:00:34:12.050
00:37:11.813 : en:00:37:11.813
00:41:00.875 : en:00:41:00.875
00:42:16.617 : en:00:42:16.617
00:45:47.453 : en:00:45:47.453
00:48:31.826 : en:00:48:31.826
00:52:57.800 : en:00:52:57.800
00:55:21.777 : en:00:55:21.777
00:57:58.809 : en:00:57:58.809
00:59:31.151 : en:00:59:31.151
01:01:35.275 : en:01:01:35.275
01:05:13.910 : en:01:05:13.910
01:08:42.410 : en:01:08:42.410
01:12:14.247 : en:01:12:14.247
01:14:22.833 : en:01:14:22.833
01:20:27.823 : en:01:20:27.823
01:22:25.649 : en:01:22:25.649
01:25:38.175 : en:01:25:38.175
01:29:41.585 : en:01:29:41.585
01:33:49.457 : en:01:33:49.457
01:36:43.256 : en:01:36:43.256
01:39:33.426 : en:01:39:33.426
01:43:05.596 : en:01:43:05.596
01:45:08.219 : en:01:45:08.219
01:46:12.658 : en:01:46:12.658
Скриншоты
Source vs Encode


Скачать

Скачать торрент!

Как скачивать? · Что такое торрент? · Рейтинг и ограничения

Сайт не распространяет и не хранит электронные версии произведений, а лишь предоставляет доступ к создаваемому пользователями каталогу ссылок на торрент-файлы, которые содержат только списки хеш-сумм

[Профиль] [ЛС]
Показать сообщения:    
Ответить на тему

Текущее время: Сегодня 18:23

Часовой пояс: GMT + 4



Вы не можете начинать темы
Вы не можете отвечать на сообщения
Вы не можете редактировать свои сообщения
Вы не можете удалять свои сообщения
Вы не можете голосовать в опросах
Вы не можете прикреплять файлы к сообщениям
Вы не можете скачивать файлы