Псы войны / The Dogs of War (Джон Ирвин / John Irvin) [1980, Великобритания, боевик, драма, приключения, военный, BDRip 720p] MVO + DVO + AVO + AVO + Sub Eng + Original Eng

Ответить на тему
 
Автор Сообщение

user ®

Стаж: 7 лет 7 месяцев

Сообщений: 20008

Пост Пост: #1 от 27-Дек-2014 02:10

[Цитировать]

Псы войны / The Dogs of War
Страна: Великобритания
Студия: Juniper Films
Жанр: боевик, драма, приключения, военный
Год выпуска: 1980
Продолжительность: 01:58:46
Перевод: Профессиональный (многоголосый закадровый) Варус-Видео
Перевод 2: Профессиональный (двухголосый закадровый) Фортуна фильм
Перевод 3: Авторский (одноголосый закадровый) Ю. Живов
Перевод 4: Авторский (одноголосый закадровый) А. Мудров
Cубтитры: английские
Оригинальная аудиодорожка: английский
Режиссер: Джон Ирвин / John Irvin
В ролях: Кристофер Уокен, Том Беренджер, Колин Блейкли, Хью Миллэ, Пол Фримен, Жан-Франсуа Стевенен, ДжоБет Уильямс, Роберт Эркарт, Уинстон Нтшона, Педро Армендарис мл.
Описание: Деловые круги Запада заинтересованы в том, чтобы свергнуть диктаторский режим в небольшой африканской стране. Осуществить переворот предложено командиру группы наемников Полу Шеннону.
За определенную сумму командир соглашается выполнить операцию и приступает к ее подготовке. Дворец диктатора взят приступом за одну ночь. Контракт выполнен. За исключением одного пункта…

Сэмпл: http://multi-up.com/1022548
Тип релиза: BDRip 720p
Контейнер: MKV
Видео: MPEG4 Video (H264) 1280x694 (83:45) 23.976fps 6 900 Kbps
Аудио: Русский AC-3 / 2 ch / 48.0 KHz / 192 Kbps| Варус-Видео
Аудио 2: Русский AC-3 / 2 ch / 48.0 KHz / 192 Kbps| Фортуна фильм
Аудио 3: Русский AC-3 / 2 ch / 48.0 KHz / 192 Kbps| Ю. Живов
Аудио 4: Русский AC-3 / 2 ch / 48.0 KHz / 192 Kbps| А. Мудров
Аудио 5: Английский DTS / 2 ch / 48.0 KHz / 1 509 Kbps| Original
Формат субтитров: softsub (SRT)

MediaInfo
General
Unique ID : 208833470888896175339599851559249635173 (0x9D1BDD0E2C7C02DB92142B8E3BD5E765)
Complete name : D:\The.Dogs.of.War.1980.BDRip.720p.x264.mkv
Format : Matroska
Format version : Version 4 / Version 2
File size : 7.62 GiB
Duration : 1h 58mn
Overall bit rate : 9 179 Kbps
Encoded date : UTC 2014-12-23 09:06:47
Writing application : mkvmerge v7.4.0 ('Circles') 64bit built on Dec 12 2014 12:19:56
Writing library : libebml v1.3.0 + libmatroska v1.4.1
_STATISTICS_WRITING_APP : mkvmerge v7.4.0 ('Circles') 64bit built on Dec 12 2014 12:19:56
_STATISTICS_WRITING_DATE_UTC : 2014-12-23 09:06:47
_STATISTICS_TAGS : BPS DURATION NUMBER_OF_FRAMES NUMBER_OF_BYTES
DURATION : 01:56:47.791000000
NUMBER_OF_FRAMES : 1124
NUMBER_OF_BYTES : 35434
Video
ID : 1
Format : AVC
Format/Info : Advanced Video Codec
Format profile : High@L4.1
Format settings, CABAC : Yes
Format settings, ReFrames : 9 frames
Codec ID : V_MPEG4/ISO/AVC
Duration : 1h 58mn
Bit rate : 6 900 Kbps
Width : 1 280 pixels
Height : 694 pixels
Display aspect ratio : 1.85:1
Frame rate mode : Constant
Frame rate : 23.976 fps
Color space : YUV
Chroma subsampling : 4:2:0
Bit depth : 8 bits
Scan type : Progressive
Bits/(Pixel*Frame) : 0.324
Stream size : 5.57 GiB (73%)
Title : MPEG-4AVC@High Profile L4.1, 24/1.001 fps @ 6900 kbps
Writing library : x264 core 142 r2479 dd79a61
Encoding settings : cabac=1 / ref=9 / deblock=1:-3:-3 / analyse=0x3:0x133 / me=umh / subme=11 / psy=1 / psy_rd=1.00:0.00 / mixed_ref=1 / me_range=32 / chroma_me=1 / trellis=2 / 8x8dct=1 / cqm=0 / deadzone=21,11 / fast_pskip=0 / chroma_qp_offset=-2 / threads=12 / lookahead_threads=1 / sliced_threads=0 / nr=0 / decimate=0 / interlaced=0 / bluray_compat=0 / constrained_intra=0 / bframes=6 / b_pyramid=2 / b_adapt=2 / b_bias=0 / direct=3 / weightb=1 / open_gop=0 / weightp=2 / keyint=240 / keyint_min=23 / scenecut=40 / intra_refresh=0 / rc_lookahead=60 / rc=2pass / mbtree=1 / bitrate=6900 / ratetol=1.0 / qcomp=0.60 / qpmin=0 / qpmax=69 / qpstep=4 / cplxblur=20.0 / qblur=0.5 / vbv_maxrate=22000 / vbv_bufsize=22000 / nal_hrd=none / filler=0 / ip_ratio=1.40 / aq=1:0.60
Language : English
Default : Yes
Forced : No
_STATISTICS_WRITING_APP : mkvmerge v7.4.0 ('Circles') 64bit built on Dec 12 2014 12:19:56
_STATISTICS_WRITING_DATE_UTC : 2014-12-23 09:06:47
_STATISTICS_TAGS : BPS DURATION NUMBER_OF_FRAMES NUMBER_OF_BYTES
DURATION : 01:58:46.328000000
NUMBER_OF_FRAMES : 170861
NUMBER_OF_BYTES : 6145109523
Audio #1
ID : 2
Format : AC-3
Format/Info : Audio Coding 3
Mode extension : CM (complete main)
Format settings, Endianness : Big
Codec ID : A_AC3
Duration : 1h 58mn
Bit rate mode : Constant
Bit rate : 192 Kbps
Channel(s) : 2 channels
Channel positions : Front: L R
Sampling rate : 48.0 KHz
Bit depth : 16 bits
Compression mode : Lossy
Stream size : 163 MiB (2%)
Title : MVO (Варус-Видео)
Language : Russian
Default : Yes
Forced : No
Audio #2
ID : 3
Format : AC-3
Format/Info : Audio Coding 3
Mode extension : CM (complete main)
Format settings, Endianness : Big
Codec ID : A_AC3
Duration : 1h 58mn
Bit rate mode : Constant
Bit rate : 192 Kbps
Channel(s) : 2 channels
Channel positions : Front: L R
Sampling rate : 48.0 KHz
Bit depth : 16 bits
Compression mode : Lossy
Stream size : 163 MiB (2%)
Title : MVO (Фортуна фильм)
Language : Russian
Default : No
Forced : No
Audio #3
ID : 4
Format : AC-3
Format/Info : Audio Coding 3
Mode extension : CM (complete main)
Format settings, Endianness : Big
Codec ID : A_AC3
Duration : 1h 58mn
Bit rate mode : Constant
Bit rate : 192 Kbps
Channel(s) : 2 channels
Channel positions : Front: L R
Sampling rate : 48.0 KHz
Bit depth : 16 bits
Compression mode : Lossy
Stream size : 163 MiB (2%)
Title : AVO (Ю. Живов)
Language : Russian
Default : No
Forced : No
Audio #4
ID : 5
Format : AC-3
Format/Info : Audio Coding 3
Mode extension : CM (complete main)
Format settings, Endianness : Big
Codec ID : A_AC3
Duration : 1h 58mn
Bit rate mode : Constant
Bit rate : 192 Kbps
Channel(s) : 2 channels
Channel positions : Front: L R
Sampling rate : 48.0 KHz
Bit depth : 16 bits
Compression mode : Lossy
Stream size : 163 MiB (2%)
Title : AVO (А. Мудров)
Language : Russian
Default : No
Forced : No
Audio #5
ID : 6
Format : DTS
Format/Info : Digital Theater Systems
Mode : 16
Format settings, Endianness : Big
Codec ID : A_DTS
Duration : 1h 58mn
Bit rate mode : Constant
Bit rate : 1 509 Kbps
Channel(s) : 2 channels
Channel positions : Front: L R
Sampling rate : 48.0 KHz
Bit depth : 24 bits
Compression mode : Lossy
Stream size : 1.25 GiB (16%)
Title : English DTS-HD Core 2.0 @ 1509 kbps
Language : English
Default : No
Forced : No
Text
ID : 7
Format : UTF-8
Codec ID : S_TEXT/UTF8
Codec ID/Info : UTF-8 Plain Text
Language : English
Default : No
Forced : No
Menu
00:00:00.000 : en:00:00:00.000
00:10:35.009 : en:00:10:35.009
00:19:44.683 : en:00:19:44.683
00:29:55.043 : en:00:29:55.043
00:42:38.222 : en:00:42:38.222
00:52:43.827 : en:00:52:43.827
01:00:57.237 : en:01:00:57.237
01:08:56.341 : en:01:08:56.341
01:20:10.806 : en:01:20:10.806
01:29:59.936 : en:01:29:59.936
01:42:27.433 : en:01:42:27.433
01:54:12.054 : en:01:54:12.054
Скриншоты
Скачать

Скачать торрент!

Как скачивать? · Что такое торрент? · Рейтинг и ограничения

Сайт не распространяет и не хранит электронные версии произведений, а лишь предоставляет доступ к создаваемому пользователями каталогу ссылок на торрент-файлы, которые содержат только списки хеш-сумм

[Профиль] [ЛС]
Показать сообщения:    
Ответить на тему

Текущее время: Сегодня 02:14

Часовой пояс: GMT + 4



Вы не можете начинать темы
Вы не можете отвечать на сообщения
Вы не можете редактировать свои сообщения
Вы не можете удалять свои сообщения
Вы не можете голосовать в опросах
Вы не можете прикреплять файлы к сообщениям
Вы не можете скачивать файлы