Мул / The Mule (Тони Махони / Tony Mahony, Энгус Сэмпсон / Angus Sampson) [2014, Австралия, криминал, комедия, драма, BDRip 1080p] DVO (den904 & DeadSno) + Sub Eng + Original Eng

Ответить на тему
 
Автор Сообщение

user ®

Стаж: 7 лет 7 месяцев

Сообщений: 20008

Пост Пост: #1 от 26-Дек-2014 19:50

[Цитировать]

Мул / The Mule
Страна: Австралия
Жанр: криминал, комедия, драма
Год выпуска: 2014
Продолжительность: 01:42:37
Перевод: Любительский (двухголосый закадровый) [den904 & DeadSno]
Оригинальная аудиодорожка: английская
Cубтитры: английские
Режиссер: Тони Махони / Tony Mahony, Энгус Сэмпсон / Angus Sampson
В ролях:Хьюго Уивинг, Энгус Сэмпсон, Ли Уоннелл, Ивен Лесли, Джофф Морелл, Джорджина Хэйг, Нони Хазлхерст, Джон Ноубл, Ник Фарнелл, Саймон Кинг
Описание:История о наивном человеке, который согласился на перевозку наркотиков в своем желудке и был задержан федеральной полицией. Он, оставшийся один и напуганный, принимает отчаянное решение: бросает вызов своему организму и удерживает доказательства внутри… в буквальном смысле. Поступая таким образом, он становится «человеческой бомбой замедленного действия», затаскивая полицейских, преступников и свою семью в безвыходную авантюру.


Качество: BDRip 1080p
Контейнер: MKV
Видео: MPEG-4 AVC, 10.7 Mбит/с, 1920x808, 23,976 fps
Аудио 1: Rus, AC3, 448 kb/s (6 ch), 48 kHz |Rus
Аудио 2: Rus, AC3, 640 kb/s (6 ch), 48 kHz |Eng
Формат субтитров: softsub (SRT)

MI
General
Unique ID : 170985085030757443753514993634676727976 (0x80A2878F4E757714B713A684918260A8)
Complete name : C:\Users\Вячеслав\Downloads\The Mule. (2014) BDRip 1080p.mkv
Format : Matroska
Format version : Version 2
File size : 8.45 GiB
Duration : 1h 42mn
Overall bit rate : 11.8 Mbps
Movie name : The Mule.2014
Encoded date : UTC 2014-12-23 13:36:49
Writing application : mkvmerge v5.8.0 ('No Sleep / Pillow') built on Sep 2 2012 15:37:04
Writing library : libebml v1.2.3 + libmatroska v1.3.0
Video
ID : 1
Format : AVC
Format/Info : Advanced Video Codec
Format profile : High@L4.1
Format settings, CABAC : Yes
Format settings, ReFrames : 4 frames
Codec ID : V_MPEG4/ISO/AVC
Duration : 1h 42mn
Bit rate : 10.7 Mbps
Width : 1 920 pixels
Height : 808 pixels
Display aspect ratio : 2.40:1
Frame rate mode : Constant
Frame rate : 24.000 fps
Color space : YUV
Chroma subsampling : 4:2:0
Bit depth : 8 bits
Scan type : Progressive
Bits/(Pixel*Frame) : 0.287
Stream size : 7.50 GiB (89%)
Title : CADAVER
Writing library : x264 core 142 r2491 24e4fed
Encoding settings : cabac=1 / ref=4 / deblock=1:-3:-3 / analyse=0x3:0x113 / me=umh / subme=11 / psy=1 / psy_rd=1.05:0.00 / mixed_ref=1 / me_range=24 / chroma_me=1 / trellis=2 / 8x8dct=1 / cqm=0 / deadzone=6,6 / fast_pskip=0 / chroma_qp_offset=-2 / threads=12 / lookahead_threads=3 / sliced_threads=0 / nr=0 / decimate=0 / interlaced=0 / bluray_compat=0 / constrained_intra=0 / bframes=10 / b_pyramid=2 / b_adapt=2 / b_bias=0 / direct=3 / weightb=1 / open_gop=0 / weightp=2 / keyint=250 / keyint_min=24 / scenecut=40 / intra_refresh=0 / rc=2pass / mbtree=0 / bitrate=10695 / ratetol=1.0 / qcomp=0.80 / qpmin=0 / qpmax=69 / qpstep=4 / cplxblur=20.0 / qblur=0.5 / ip_ratio=1.10 / pb_ratio=1.10 / aq=1:0.70
Language : English
Default : Yes
Forced : No
Audio #1
ID : 2
Format : AC-3
Format/Info : Audio Coding 3
Mode extension : CM (complete main)
Format settings, Endianness : Big
Codec ID : A_AC3
Duration : 1h 42mn
Bit rate mode : Constant
Bit rate : 448 Kbps
Channel(s) : 6 channels
Channel positions : Front: L C R, Side: L R, LFE
Sampling rate : 48.0 KHz
Bit depth : 16 bits
Compression mode : Lossy
Stream size : 329 MiB (4%)
Title : L2 | den904 & DeadSno | по переводу dsa69
Language : Russian
Default : Yes
Forced : No
Audio #2
ID : 3
Format : AC-3
Format/Info : Audio Coding 3
Mode extension : CM (complete main)
Format settings, Endianness : Big
Codec ID : A_AC3
Duration : 1h 42mn
Bit rate mode : Constant
Bit rate : 640 Kbps
Channel(s) : 6 channels
Channel positions : Front: L C R, Side: L R, LFE
Sampling rate : 48.0 KHz
Bit depth : 16 bits
Compression mode : Lossy
Stream size : 470 MiB (5%)
Title : Original
Language : English
Default : No
Forced : No
Text #1
ID : 4
Format : UTF-8
Codec ID : S_TEXT/UTF8
Codec ID/Info : UTF-8 Plain Text
Title : Full
Language : English
Default : No
Forced : No
Text #2
ID : 5
Format : UTF-8
Codec ID : S_TEXT/UTF8
Codec ID/Info : UTF-8 Plain Text
Title : SDH
Language : English
Default : No
Forced : No
Menu
00:00:00.000 : en:00:00:00.000
00:06:50.208 : en:00:06:50.208
00:13:49.083 : en:00:13:49.083
00:20:41.958 : en:00:20:41.958
00:27:58.083 : en:00:27:58.083
00:35:03.875 : en:00:35:03.875
00:42:09.292 : en:00:42:09.292
00:48:45.208 : en:00:48:45.208
00:57:17.667 : en:00:57:17.667
01:04:44.208 : en:01:04:44.208
01:24:59.542 : en:01:24:59.542
01:37:34.375 : en:01:37:34.375
Скриншоты
Скачать

Скачать торрент!

Как скачивать? · Что такое торрент? · Рейтинг и ограничения

Сайт не распространяет и не хранит электронные версии произведений, а лишь предоставляет доступ к создаваемому пользователями каталогу ссылок на торрент-файлы, которые содержат только списки хеш-сумм

[Профиль] [ЛС]
Показать сообщения:    
Ответить на тему

Текущее время: Сегодня 00:09

Часовой пояс: GMT + 4



Вы не можете начинать темы
Вы не можете отвечать на сообщения
Вы не можете редактировать свои сообщения
Вы не можете удалять свои сообщения
Вы не можете голосовать в опросах
Вы не можете прикреплять файлы к сообщениям
Вы не можете скачивать файлы