Занесло / Redirected (Эмилис Веливис / Emilis Welyvis) [2014, Великобритания, Литва, боевик, триллер, драма, комедия, WEB-DLRip] MVO (студия Paradox)

Ответить на тему
 
Автор Сообщение

user ®

Стаж: 7 лет 7 месяцев

Сообщений: 20008

Пост Пост: #1 от 26-Дек-2014 19:50

[Цитировать]

Занесло / Redirected
Страна: Великобритания, Литва
Жанр: боевик, триллер, драма, комедия
Год выпуска: 2014
Продолжительность: 01:39:03
Перевод: Любительский (многоголосый закадровый) [студия Paradox]
Оригинальная аудиодорожка:английская
Cубтитры: нет
Режиссер: Эмилис Веливис / Emilis Welyvis
В ролях:Винни Джонс, Скот Уильямс, Гил Дарнелл, Энтони Страхан, Андрюс Жюраускас, Витаутас Шапранаускас, Артур Смольянинов, Вита Сяусюнайте
Описание:Картина повествует о необычайных приключениях в Литве четырёх англичан — Майкла, Джонни, Бена и Тима. После удачного налёта в Лондоне на нелегальное казино, «славная четвёрка» садится в самолет, летящий в Малайзию. Кажется, все идёт по плану. Но… Никто не мог предусмотреть проделок вулкана Эйяфьядлайёкюдля, извержение которого вынудило самолет с англичанами сесть в Вильнюсе. Мало того, помимо местных разборок и приключений на все части тела, друзьям приходится спасаться от жаждущего мести владельца ограбленного казино.


Качество: WEB-DLRip
Контейнер: AVI
Видео: 720x304 (2.37:1), 23.976 fps, XviD build 73 ~1710 kbps avg, 0.33 bit/pixel
Аудио 1: 48 kHz, MPEG Layer 3, 2 ch, ~192.00 kbps avg |Rus
Аудио 2: 48 kHz, AC3 Dolby Digital, 2/0 (L,R) ch, ~192 kbps|Eng

MI
General
Complete name : C:\Users\Вячеслав\Downloads\Redirected.2014.L.WEB-DLRip.1.46.GB.avi
Format : AVI
Format/Info : Audio Video Interleave
File size : 1.46 GiB
Duration : 1h 39mn
Overall bit rate : 2 110 Kbps
Writing application : VirtualDubMod 1.5.10.3 | www.virtualdub-fr.org || (build 2550/release)
Writing library : VirtualDubMod build 2550/release
Video
ID : 0
Format : MPEG-4 Visual
Format profile : Advanced Simple@L5
Format settings, BVOP : 1
Format settings, QPel : No
Format settings, GMC : No warppoints
Format settings, Matrix : Custom
Codec ID : XVID
Codec ID/Hint : XviD
Duration : 1h 39mn
Bit rate : 1 712 Kbps
Width : 720 pixels
Height : 304 pixels
Display aspect ratio : 2.35:1
Frame rate : 23.976 fps
Color space : YUV
Chroma subsampling : 4:2:0
Bit depth : 8 bits
Scan type : Progressive
Compression mode : Lossy
Bits/(Pixel*Frame) : 0.326
Stream size : 1.18 GiB (81%)
Writing library : XviD 73
Audio #1
ID : 1
Format : MPEG Audio
Format version : Version 1
Format profile : Layer 3
Codec ID : 55
Codec ID/Hint : MP3
Duration : 1h 39mn
Bit rate mode : Constant
Bit rate : 192 Kbps
Channel(s) : 2 channels
Sampling rate : 48.0 KHz
Compression mode : Lossy
Stream size : 136 MiB (9%)
Alignment : Aligned on interleaves
Interleave, duration : 42 ms (1.00 video frame)
Interleave, preload duration : 504 ms
Writing library : L3.99r
Encoding settings : -m s -V 4 -q 2 -lowpass 18.6 -b 192
Audio #2
ID : 2
Format : AC-3
Format/Info : Audio Coding 3
Mode extension : CM (complete main)
Format settings, Endianness : Big
Codec ID : 2000
Duration : 1h 39mn
Bit rate mode : Constant
Bit rate : 192 Kbps
Channel(s) : 2 channels
Channel positions : Front: L R
Sampling rate : 48.0 KHz
Bit depth : 16 bits
Compression mode : Lossy
Delay relative to video : 16ms
Stream size : 136 MiB (9%)
Alignment : Split accross interleaves
Interleave, duration : 42 ms (1.00 video frame)
Interleave, preload duration : 500 ms
Скриншоты
Скачать

Скачать торрент!

Как скачивать? · Что такое торрент? · Рейтинг и ограничения

Сайт не распространяет и не хранит электронные версии произведений, а лишь предоставляет доступ к создаваемому пользователями каталогу ссылок на торрент-файлы, которые содержат только списки хеш-сумм

[Профиль] [ЛС]
Показать сообщения:    
Ответить на тему

Текущее время: Сегодня 04:14

Часовой пояс: GMT + 4



Вы не можете начинать темы
Вы не можете отвечать на сообщения
Вы не можете редактировать свои сообщения
Вы не можете удалять свои сообщения
Вы не можете голосовать в опросах
Вы не можете прикреплять файлы к сообщениям
Вы не можете скачивать файлы