Встреча выпускников 2: Похороны / Klassefesten 2: Begravelsen (Миккель Серуп / Mikkel Serup) [2014, Дания, комедия, DVDRip] VO (PashaUp)

Ответить на тему
 
Автор Сообщение

user ®

Стаж: 7 лет 7 месяцев

Сообщений: 20008

Пост Пост: #1 от 26-Дек-2014 19:50

[Цитировать]

Встреча выпускников 2: Похороны / Klassefesten 2: Begravelsen
Страна: Дания
Жанр: комедия
Год выпуска: 2014
Продолжительность:01:33:26
Перевод: Одноголосый (закадровый) [PashaUp]
Оригинальная аудиодорожка: нет
Cубтитры: нет
Режиссер: Миккель Серуп / Mikkel Serup
В ролях:Aндерс В. Бартельсен, Николай Коперникус, Троэлс Любю, Ларс Ранте, Анне Софи Эсперсен, Сигне Скоу, Андреа Вагн Йенсен
Описание: Томас, Андреас, Нильс собрались снова — на этот раз для празднования свадьбы Томаса и Лаерке. Андреас устраивает по этому поводу мальчишник. Однако внезапная смерть во время вечеринки другого приятеля — Торбена вносит в планы друзей коррективы. Теперь они должны отправиться в поездку на похороны Торбена. Как всегда, не обошлось без бурных приключений. Успеют ли друзья вернуться до начала свадебной церемонии? Смогут ли они сохранить прочность своей дружбы, разобраться в своих личных проблемах? Им многое предстоит испытать и понять.

Качество: WEB-DLRip
Контейнер: AVI
Видео: 720x304 (2.37:1), 24.000 fps, XviD build 73 ~1679 kbps avg, 0.32 bit/pixel
Аудио: 48 kHz, AC3 Dolby Digital, 3/2 (L,C,R,l,r) + LFE ch, ~448 kbps

MI
General
Complete name : C:\Users\Вячеслав\Downloads\Klassefesten.2.2014.L1.HDRip.avi
Format : AVI
Format/Info : Audio Video Interleave
File size : 1.45 GiB
Duration : 1h 37mn
Overall bit rate : 2 137 Kbps
Writing application : VirtualDubMod 1.5.10.3 | www.virtualdub-fr.org || (build 2550/release)
Writing library : VirtualDubMod build 2550/release
Video
ID : 0
Format : MPEG-4 Visual
Format profile : Advanced Simple@L5
Format settings, BVOP : 1
Format settings, QPel : No
Format settings, GMC : No warppoints
Format settings, Matrix : Custom
Codec ID : XVID
Codec ID/Hint : XviD
Duration : 1h 37mn
Bit rate : 1 679 Kbps
Width : 720 pixels
Height : 304 pixels
Display aspect ratio : 2.35:1
Frame rate : 24.000 fps
Color space : YUV
Chroma subsampling : 4:2:0
Bit depth : 8 bits
Scan type : Progressive
Compression mode : Lossy
Bits/(Pixel*Frame) : 0.320
Stream size : 1.14 GiB (79%)
Writing library : XviD 73
Audio
ID : 1
Format : AC-3
Format/Info : Audio Coding 3
Mode extension : CM (complete main)
Format settings, Endianness : Big
Codec ID : 2000
Duration : 1h 37mn
Bit rate mode : Constant
Bit rate : 448 Kbps
Channel(s) : 6 channels
Channel positions : Front: L C R, Side: L R, LFE
Sampling rate : 48.0 KHz
Bit depth : 16 bits
Compression mode : Lossy
Stream size : 312 MiB (21%)
Alignment : Split accross interleaves
Interleave, duration : 42 ms (1.00 video frame)
Interleave, preload duration : 500 ms
Скриншоты
Скачать

Скачать торрент!

Как скачивать? · Что такое торрент? · Рейтинг и ограничения

Сайт не распространяет и не хранит электронные версии произведений, а лишь предоставляет доступ к создаваемому пользователями каталогу ссылок на торрент-файлы, которые содержат только списки хеш-сумм

[Профиль] [ЛС]
Показать сообщения:    
Ответить на тему

Текущее время: Сегодня 06:10

Часовой пояс: GMT + 4



Вы не можете начинать темы
Вы не можете отвечать на сообщения
Вы не можете редактировать свои сообщения
Вы не можете удалять свои сообщения
Вы не можете голосовать в опросах
Вы не можете прикреплять файлы к сообщениям
Вы не можете скачивать файлы