Спасти Санту / Saving Santa (Леон Джусен / Leon Joosen, Аарон Силман / Aaron Seelman) [2013, мультфильм, мюзикл, фэнтези, BDRip] Dub

Ответить на тему
 
Автор Сообщение

user ®

Стаж: 12 лет

Сообщений: 15145

Пост Пост: #1 от 26-Дек-2014 16:40

[Цитировать]

Спасти Санту / Saving Santa«На машине времени за Новым годом!»- Страна: Великобритания
Жанр: мультфильм, мюзикл, фэнтези, комедия, приключения, семейный
Год выпуска: 2013
Продолжительность: 01:23:54
Перевод: Профессиональный (полное дублирование)
Русские субтитры: Нет-Режиссер: Леон Джусен / Leon Joosen, Аарон Силман / Aaron Seelman-Роли дублировали: Алексей Чумаков, Михаил Пореченков, Владислав Лисовец, Юлия Ковальчук-Описание: Эльф Бернард - очень мил, весел, и... слегка несерьёзен. Но ему придется измениться, ведь у него впереди потрясающее и очень опасное приключение! Кто-то собирается похитить Санту и его волшебные сани, в которых можно перемещаться в разные эпохи. А без Санты Новый год никогда не наступит! Бернарду придётся переместиться во времени, сразиться со злодеем, остановить его армию, изменить прошлое, спасти Новый год и стать настоящим героем!-Рейтинг:
-Сборы в России: $2 605 405
Мировая премьера: 5 ноября 2013
Релиз на DVD: 12 декабря 2013 «CD Land»-Релиз: -Семпл-Качество: BDRip [Saving.Santa.2013.BDRemux.1080p.dfcbit]
Формат: AVI
Видео: 656x352 (1.86:1), 23.976 fps, XviD build 65 ~1106 kbps avg, 0.20 bit/pixel
Аудио: 48 kHz, MPEG Layer 3, 2 ch, ~128.00 kbps avg
Субтитры: Отсутствуют-

MI
Format : AVIFormat/Info : Audio Video InterleaveFile size : 746 MiBDuration : 1h 23mnOverall bit rate : 1 244 KbpsWriting application : VirtualDubMod 1.5.10.3 | www.virtualdub-fr.org || (build 2550/release)Writing library : VirtualDubMod build 2550/release
VideoID : 0Format : MPEG-4 VisualFormat profile : Advanced Simple@L5Format settings, BVOP : 2Format settings, QPel : NoFormat settings, GMC : No warppointsFormat settings, Matrix : CustomCodec ID : XVIDCodec ID/Hint : XviDDuration : 1h 23mnBit rate : 1 106 KbpsWidth : 656 pixelsHeight : 352 pixelsDisplay aspect ratio : 1.85:1Frame rate : 23.976 fpsColor space : YUVChroma subsampling : 4:2:0Bit depth : 8 bitsScan type : ProgressiveCompression mode : LossyBits/(Pixel*Frame) : 0.200Stream size : 664 MiB (89%)Writing library : XviD 65
AudioID : 1Format : MPEG AudioFormat version : Version 1Format profile : Layer 3Codec ID : 55Codec ID/Hint : MP3Duration : 1h 23mnBit rate mode : ConstantBit rate : 128 KbpsChannel(s) : 2 channelsSampling rate : 48.0 KHzCompression mode : LossyStream size : 76.8 MiB (10%)Alignment : Aligned on interleavesInterleave, duration : 42 ms (1.00 video frame)Interleave, preload duration : 504 msWriting library : LAME3.99rEncoding settings : -m s -V 4 -q 2 -lowpass 17 -b 128
[url=http://***/forum/tracker.php?f=1900,208,209,2258,2343,2365,4,484,521,539,822,930&nm=Saving%20Santa]Все раздачи мультфильма![/url]
Скачать

Скачать торрент! Спасти Санту / Saving Santa (Леон Джусен / Leon Joosen, Аарон Силман / Aaron Seelman) [2013, мультфильм, мюзикл, фэнтези, BDRip] Dub

Как скачивать? · Что такое торрент? · Рейтинг и ограничения

Сайт не распространяет и не хранит электронные версии произведений, а лишь предоставляет доступ к создаваемому пользователями каталогу ссылок на торрент-файлы, которые содержат только списки хеш-сумм

[Профиль] [ЛС]
Показать сообщения:    
Ответить на тему

Текущее время: Сегодня 11:55

Часовой пояс: GMT + 4



Вы не можете начинать темы
Вы не можете отвечать на сообщения
Вы не можете редактировать свои сообщения
Вы не можете удалять свои сообщения
Вы не можете голосовать в опросах
Вы не можете прикреплять файлы к сообщениям
Вы не можете скачивать файлы