Служители зла / The Evil Cult / Yi tian tu long ji: Zhi mo jiao jiao zhu (Джинг Вонг / Jing Wong) [1993 г., Гонконг, Фэнтези, боевик, история, DVDRip] MVO

Ответить на тему
 
Автор Сообщение

user ®

Стаж: 11 лет

Сообщений: 15151

Пост Пост: #1 от 26-Дек-2014 16:40

[Цитировать]

Служители зла / The Evil Cult / Yi tian tu long ji: Zhi mo jiao jiao zhu
Страна: Гонконг
Жанр: Фэнтези, боевик, история
Год выпуска: 1993
Продолжительность: 01:38:45
Перевод: Профессиональный (многоголосый закадровый)
Оригинальная аудиодорожка: нет
Cубтитры: нет
Режиссер: Джинг Вонг / Jing Wong
В ролях: Джет Ли, Mэн Чунг, Чингми Яу, Саммо Хунг Кам-Бо, Ричард ЭнДжи, Ка-Ян Леунг, Гиги Лаи, Колин Чоу, Френсис Нг, Экин Чэн
Описание: Эпоха великой династии Юэнь. Могущественные секты бесстрашных войнов и магов борются за обладание мечом То-Лун и саблей Йи -Тинь, ибо древняя легенда гласит: тот, кто станет их хозяином, будет править всем миром. Царство стонет от бессмысленных распрей и жестоких сражений, и вскоре становится ясно, что остановить кровопролитие сможет лишь бесстрашный юноша Мо Кей, поклявшийся отомстить за убитого отца вождям враждующих сект.
С помощью таинственной магии и секретных приемов восточных единоборств он покорит несокрушимые кланы и восстановит желанный мир на земле своих предков, став непобедимым мастером древних боевых искусств.


Качество: DVDRip
Контейнер: AVI
Видео: 624x336 (1.86:1), 25 fps, XviD build 50 ~915 kbps avg, 0.17 bit/pixel
Аудио: 48 kHz, MPEG Layer 3, 2 ch, ~128.00 kbps avg

MI
General
Complete name : C:\Users\Вячеслав\Downloads\Slujiteli zla_DVDRip_743_Некул.avi
Format : AVI
Format/Info : Audio Video Interleave
File size : 744 MiB
Duration : 1h 38mn
Overall bit rate : 1 053 Kbps
Writing application : VirtualDubMod 1.5.10.3 | www.virtualdub-fr.org || (build 2550/release)
Writing library : VirtualDubMod build 2550/release
Video
ID : 0
Format : MPEG-4 Visual
Format profile : Advanced Simple@L5
Format settings, BVOP : 2
Format settings, QPel : No
Format settings, GMC : No warppoints
Format settings, Matrix : Default (MPEG)
Codec ID : XVID
Codec ID/Hint : XviD
Duration : 1h 38mn
Bit rate : 915 Kbps
Width : 624 pixels
Height : 336 pixels
Display aspect ratio : 1.85:1
Frame rate : 25.000 fps
Color space : YUV
Chroma subsampling : 4:2:0
Bit depth : 8 bits
Scan type : Progressive
Compression mode : Lossy
Bits/(Pixel*Frame) : 0.175
Stream size : 647 MiB (87%)
Writing library : XviD 1.2.1 (UTC 2008-12-04)
Audio
ID : 1
Format : MPEG Audio
Format version : Version 1
Format profile : Layer 3
Codec ID : 55
Codec ID/Hint : MP3
Duration : 1h 38mn
Bit rate mode : Constant
Bit rate : 128 Kbps
Channel(s) : 2 channels
Sampling rate : 48.0 KHz
Compression mode : Lossy
Stream size : 90.4 MiB (12%)
Alignment : Aligned on interleaves
Interleave, duration : 40 ms (1.00 video frame)
Interleave, preload duration : 504 ms
Writing library : LAME3.99r
Encoding settings : -m s -V 4 -q 2 -lowpass 17 -b 128
Скриншоты
Скачать

Скачать торрент! Служители зла / The Evil Cult / Yi tian tu long ji: Zhi mo jiao jiao zhu (Джинг Вонг / Jing Wong) [1993 г., Гонконг, Фэнтези, боевик, история, DVDRip] MVO

Как скачивать? · Что такое торрент? · Рейтинг и ограничения

Сайт не распространяет и не хранит электронные версии произведений, а лишь предоставляет доступ к создаваемому пользователями каталогу ссылок на торрент-файлы, которые содержат только списки хеш-сумм

[Профиль] [ЛС]
Показать сообщения:    
Ответить на тему

Текущее время: Сегодня 22:43

Часовой пояс: GMT + 4



Вы не можете начинать темы
Вы не можете отвечать на сообщения
Вы не можете редактировать свои сообщения
Вы не можете удалять свои сообщения
Вы не можете голосовать в опросах
Вы не можете прикреплять файлы к сообщениям
Вы не можете скачивать файлы