Cердце дракона / Heart of the Dragon / Long de Xin (Саммо Хунг Кам-Бо / Sammo Hung Kam-Bo) [1985, Гонконг, боевик, триллер, драма, комедия, BDRip] [Расширенная версия / Extended edition] MVO + AVO + Sub (Rus)

Ответить на тему
 
Автор Сообщение

user ®

Стаж: 13 лет

Сообщений: 15071

Пост Пост: #1 от 26-Дек-2014 10:00

[Цитировать]

Сердце Дракона / Heart of the Dragon / Long de Xin- Страна: Гонконг
Год выпуска: 1985
Жанр: боевик, триллер, драма, комедия
Продолжительность: 01:38:40
Перевод #1: Профессиональный (многоголосый закадровый)
Перевод #2: Авторский (одноголосый закадровый) Живов
Cубтитры: русский (на добавленные сцены)
Оригинальная аудиодорожка: нет
Режиссер: Саммо Хунг Кам-Бо / Sammo Hung Kam-Bo
В ролях: Джеки Чан, Саммо Хунг Кам-Бо, Эмили Чу, Хой Ман, Чинг-Йинг Лам, Ланг Чан, Юэнь Ва, Кар Лок Чин, Кори Юэнь, Мелвин Вонг, Деннис Чан, Йип Винг Чо, Энтони Чан, По Тай, Фанг Ву, Джеймс Тьен, Фэт Чунг, Дик Вэй
Описание: Молодой полицейский Тед, поступивший в спецподразделение полиции, получает первое задание. Во время расследования Тед узнает, что его братец Денни, непутевый толстяк и недотепа, оказался замешанным в торговле краденым. Спасение единственного родного человека становится главным заданием Теда.
-Качество: BDRip [[url=http://***/forum/viewtopic.php?t=4607550]BDRemux 1080p[/url]]
Формат: AVI
Видео кодек: XviD
Аудио кодек: AC3
Видео: 688x384 (1.79:1), 23.976 fps, XviD build 50 ~1917 kbps avg, 0.30 bit/pixel
Аудио #1: 48 kHz, AC3 Dolby Digital, 2/0 (L,R) ch, ~192 kbps | MVO
Аудио #2: 48 kHz, AC3 Dolby Digital, 2/0 (L,R) ch, ~160 kbps | AVO (отдельно)-Раздача от: -

Скриншоты MI
D:\Мои рипы\Heart.of.the.Dragon.1985.bdrip.dexter_lex\Heart.of.the.Dragon.1985.bdrip.dexter_lex.avi
  General
    Complete name : D:\Мои рипы\Heart.of.the.Dragon.1985.bdrip.dexter_lex\Heart.of.the.Dragon.1985.bdrip.dexter_lex.avi
    Format : AVI
    Format/Info : Audio Video Interleave
    File size : 1.46 GiB
    Duration : 1h 38mn
    Overall bit rate : 2 116 Kbps
    Writing application : VirtualDubMod 1.5.10.3 | www.virtualdub-fr.org || (build 2550/release)
    Writing library : VirtualDubMod build 2550/release
  Video #0
    ID : 0
    Format : MPEG-4 Visual
    Format profile : Advanced Simple@L5
    Format settings, BVOP : 1
    Format settings, QPel : No
    Format settings, GMC : No warppoints
    Format settings, Matrix : Custom
    Codec ID : XVID
    Codec ID/Hint : XviD
    Duration : 1h 38mn
    Bit rate : 1 918 Kbps
    Width : 688 pixels
    Height : 384 pixels
    Display aspect ratio : 16:9
    Frame rate : 23.976 fps
    Color space : YUV
    Chroma subsampling : 4:2:0
    Bit depth : 8 bits
    Scan type : Progressive
    Compression mode : Lossy
    Bits/(Pixel*Frame) : 0.303
    Stream size : 1.32 GiB (91%)
    Writing library : XviD 1.2.1 (UTC 2008-12-04)
  Audio #1
    ID : 1
    Format : AC-3
    Format/Info : Audio Coding 3
    Mode extension : CM (complete main)
    Codec ID : 2000
    Duration : 1h 37mn
    Bit rate mode : Constant
    Bit rate : 192 Kbps
    Channel(s) : 2 channels
    Channel positions : Front: L R
    Sampling rate : 48.0 KHz
    Bit depth : 16 bits
    Compression mode : Lossy
    Stream size : 133 MiB (9%)
    Alignment : Split accross interleaves
    Interleave, duration : 42 ms (1.02 video frame)
    Interleave, preload duration : 500 ms
D:\Мои рипы\Heart.of.the.Dragon.1985.bdrip.dexter_lex\Heart.of.the.Dragon.1985.bdrip.dexter_lex.AVO.ac3
  General
    Complete name : D:\Мои рипы\Heart.of.the.Dragon.1985.bdrip.dexter_lex\Heart.of.the.Dragon.1985.bdrip.dexter_lex.AVO.ac3
    Format : AC-3
    Format/Info : Audio Coding 3
    File size : 113 MiB
    Duration : 1h 38mn
    Overall bit rate mode : Constant
    Overall bit rate : 160 Kbps
  Audio
    Format : AC-3
    Format/Info : Audio Coding 3
    Mode extension : CM (complete main)
    Duration : 1h 38mn
    Bit rate mode : Constant
    Bit rate : 160 Kbps
    Channel(s) : 2 channels
    Channel positions : Front: L R
    Sampling rate : 48.0 KHz
    Bit depth : 16 bits
    Compression mode : Lossy
    Stream size : 113 MiB (100%)
Скачать

Скачать торрент! Cердце дракона / Heart of the Dragon / Long de Xin (Саммо Хунг Кам-Бо / Sammo Hung Kam-Bo) [1985, Гонконг, боевик, триллер, драма, комедия, BDRip] [Расширенная версия / Extended edition] MVO + AVO + Sub (Rus)

Как скачивать? · Что такое торрент? · Рейтинг и ограничения

Сайт не распространяет и не хранит электронные версии произведений, а лишь предоставляет доступ к создаваемому пользователями каталогу ссылок на торрент-файлы, которые содержат только списки хеш-сумм

[Профиль] [ЛС]
Показать сообщения:    
Ответить на тему

Текущее время: Сегодня 17:08

Часовой пояс: GMT + 4



Вы не можете начинать темы
Вы не можете отвечать на сообщения
Вы не можете редактировать свои сообщения
Вы не можете удалять свои сообщения
Вы не можете голосовать в опросах
Вы не можете прикреплять файлы к сообщениям
Вы не можете скачивать файлы