Оставленные / Left Behind (Вик Армстронг / Vic Armstrong) [2014, США, фантастика, триллер, драма, BDRip] Dub + Original Eng + subs (Rus, Eng)

Ответить на тему
 
Автор Сообщение

user ®

Стаж: 7 лет 7 месяцев

Сообщений: 20008

Пост Пост: #1 от 26-Дек-2014 10:00

[Цитировать]

Оставленные / Left Behind- Год выпуска: 2014
Страна: США
Жанр: фантастика, триллер, драма
Продолжительность: 01:50:05
Перевод: Профессиональный (полное дублирование) BD RUS
+ Оригинальная звуковая дорожка
Субтитры: Русские, Английские (внешние srt*)-Режиссер: Вик Армстронг / Vic Armstrong
В ролях: Николас Кейдж, Чад Майкл Мюррэй, Касси Томсон, Никки Уилан, Джордин Спаркс, Лиа Томпсон, Уильям Рэгсдэйл, Лора Кайюэтт, Куинтон Аарон, Мартин Клебба
О фильме: История летчика Рэйфорда Стила, столкнувшегося во время рейса с исчезновением нескольких пассажиров прямо из салона самолета. Вскоре становится известно о случаях бесследного исчезновения и в других местах. Людей охватывает паника.-Релиз:
Автор: sociolog_melvas
Качество: BDRip (источник: Kinozal-TV / BD-Remux [Ger Transfer] / 1080p)
Формат: AVI
Видео: 720x304 (2.37:1), 23,976 fps, XviD build 65 ~1936 kbps avg, 0.37 bit/pixel
Аудио #1: 48 kHz, AC3 Dolby Digital, 3/2 (L,C,R,l,r) + LFE ch, ~448.00 kbps avg rus
Аудио #2: 48 kHz, AC3 Dolby Digital, 3/2 (L,C,R,l,r) + LFE ch, ~448.00 kbps avg eng
Размер: 2235.22 Mb (1/2 DVD-R)
Скачать: Семпл-

Кадры из фильма
-
Mi
Формат : AVI
Формат/Информация : Audio Video Interleave
Профиль формата : OpenDML
Размер файла : 2,18 Гбайт
Продолжительность : 1 ч. 50 м.
Общий поток : 2839 Кбит/сек
Название фильма : Оставленные / Left Behind (2014) BDRip
Режиссёр : sociolog_melvas
Жанр : фантастика, триллер, драма
Программа кодирования : VirtualDubMod 1.5.10.2 (build 2540/release)
Примечание : 25.12.2014
Видео
Идентификатор : 0
Формат : MPEG-4 Visual
Профиль формата : Advanced Simple@L5
Параметр BVOP формата : 1
Параметр QPel формата : Нет
Параметр GMC формата : Без точки перехода
Параметр матрицы формата : Выборочная
Идентификатор кодека : XVID
Идентификатор кодека/Подсказка : XviD
Продолжительность : 1 ч. 50 м.
Битрейт : 1925 Кбит/сек
Ширина : 720 пикселей
Высота : 304 пикселя
Соотношение сторон : 2,35:1
Частота кадров : 23,976 кадра/сек
Цветовое пространство : YUV
Субдискретизация насыщенности : 4:2:0
Битовая глубина : 8 бит
Тип развёртки : Прогрессивная
Метод сжатия : С потерями
Бит/(Пиксели*Кадры) : 0.367
Размер потока : 1,48 Гбайт (68%)
Библиотека кодирования : XviD 65
Аудио #1
Идентификатор : 1
Формат : AC-3
Формат/Информация : Audio Coding 3
Расширение режима : CM (complete main)
Параметр Endianness формата : Big
Идентификатор кодека : 2000
Продолжительность : 1 ч. 50 м.
Вид битрейта : Постоянный
Битрейт : 448 Кбит/сек
Каналы : 6 каналов
Расположение каналов : Front: L C R, Side: L R, LFE
Частота : 48,0 КГц
Битовая глубина : 16 бит
Метод сжатия : С потерями
Размер потока : 353 Мбайт (16%)
Выравнивание : Разделение по промежуткам
Продолжительность промежутка : 42 мс. (1,00 видеокадр)
Время предзагрузки промежутка : 500 мс.
Аудио #2
Идентификатор : 2
Формат : AC-3
Формат/Информация : Audio Coding 3
Расширение режима : CM (complete main)
Параметр Endianness формата : Big
Идентификатор кодека : 2000
Продолжительность : 1 ч. 50 м.
Вид битрейта : Постоянный
Битрейт : 448 Кбит/сек
Каналы : 6 каналов
Расположение каналов : Front: L C R, Side: L R, LFE
Частота : 48,0 КГц
Битовая глубина : 16 бит
Метод сжатия : С потерями
Размер потока : 353 Мбайт (16%)
Выравнивание : Разделение по промежуткам
Продолжительность промежутка : 42 мс. (1,00 видеокадр)
Время предзагрузки промежутка : 500 мс.
-
Скачать

Скачать торрент!

Как скачивать? · Что такое торрент? · Рейтинг и ограничения

Сайт не распространяет и не хранит электронные версии произведений, а лишь предоставляет доступ к создаваемому пользователями каталогу ссылок на торрент-файлы, которые содержат только списки хеш-сумм

[Профиль] [ЛС]
Показать сообщения:    
Ответить на тему

Текущее время: Сегодня 06:26

Часовой пояс: GMT + 4



Вы не можете начинать темы
Вы не можете отвечать на сообщения
Вы не можете редактировать свои сообщения
Вы не можете удалять свои сообщения
Вы не можете голосовать в опросах
Вы не можете прикреплять файлы к сообщениям
Вы не можете скачивать файлы