Отцовский инстинкт (Алексей Волов) [2014, Боевик, криминал, WEB-DLRip]

Ответить на тему
 
Автор Сообщение

user ®

Стаж: 7 лет 7 месяцев

Сообщений: 20008

Пост Пост: #1 от 26-Дек-2014 03:40

[Цитировать]

Отцовский инстинкт
Жанр: Боевик, криминал
Год выпуска: 2014
Продолжительность: 01:32:02
Режиссёр: Алексей Волов
В ролях: Анатолий Узденский, Ольга Иванова, Константин Стрельников, Сергей Колесников, Сергей Комаров, Игорь Волков
Описание: Фильм о Петре Набокове по прозвищу "Апостол", одном из ведущих героев телесериала "Ментовские войны". Кто-то объявил охоту на Апостола, покушение следует за покушением. Набоков не знает, кто за этим стоит, но должен разобраться, ведь на кону не только его жизнь, но и судьба недавно найденной им дочери Милы. Апостол считает, что его решил убрать Пантелей, с которым у них сложился конфликт из-за бизнес-интересов. А может быть это месть давнего врага Апостола — Градуса, который, отсидев 20 лет, вышел на свободу. Апостол не может рисковать жизнью дочери и решает отправить её за границу. И, едва Мила уезжает, в дом Апостола врываются киллеры. Лишь хорошая реакция и большой жизненный опыт позволяют Набокову остаться в живых и обезвредить преступников. Он решается на неожиданный шаг, о котором не рассказывает никому, даже дочери и начальнику своей охраны Реутову. Апостол с помощью своих старых друзей начинает собственное расследование. Правда, которую ему предстоит открыть, окажется намного страшнее, чем он мог себе представить…
Сэмпл: http://multi-up.com/1022709
Качество видео: WEB-DLRip
Формат видео: AVI
Видео: 720x400 (1.80:1), 25 fps, XviD MPEG-4 ~1984 kbps avg, 0.28 bit/pixel
Аудио: 48 kHz, MPEG Layer 3, 2 ch, ~128.00 kbps avg
MediaInfo
Формат : AVI
Формат/Информация : Audio Video Interleave
Размер файла : 1,36 Гбайт
Продолжительность : 1 ч. 32 м.
Общий поток : 2122 Кбит/сек
Библиотека кодирования : VirtualDub build 35491/release
Видео
Идентификатор : 0
Формат : MPEG-4 Visual
Профиль формата : Advanced Simple@L5
Параметр BVOP формата : 2
Параметр QPel формата : Нет
Параметр GMC формата : Без точки перехода
Параметр матрицы формата : Default (H.263)
Режим смешивания : Сжатый битовый поток
Идентификатор кодека : XVID
Идентификатор кодека/Подсказка : XviD
Продолжительность : 1 ч. 32 м.
Битрейт : 1984 Кбит/сек
Ширина : 720 пикселей
Высота : 400 пикселей
Соотношение сторон : 16:9
Частота кадров : 25,000 кадров/сек
Цветовое пространство : YUV
Субдискретизация насыщенности : 4:2:0
Битовая глубина : 8 бит
Тип развёртки : Прогрессивная
Метод сжатия : С потерями
Бит/(Пиксели*Кадры) : 0.276
Размер потока : 1,28 Гбайт (94%)
Библиотека кодирования : XviD 73
Аудио
Идентификатор : 1
Формат : MPEG Audio
Версия формата : Version 1
Профиль формата : Layer 3
Режим : Joint stereo
Расширение режима : MS Stereo
Идентификатор кодека : 55
Идентификатор кодека/Подсказка : MP3
Продолжительность : 1 ч. 32 м.
Вид битрейта : Постоянный
Битрейт : 128 Кбит/сек
Каналы : 2 канала
Частота : 48,0 КГц
Метод сжатия : С потерями
Задержка видео : 100 мс.
Размер потока : 84,3 Мбайт (6%)
Выравнивание : Разделение по промежуткам
Продолжительность промежутка : 40 мс. (1,00 видеокадр)
Время предзагрузки промежутка : 500 мс.
Скриншоты
Скачать

Скачать торрент!

Как скачивать? · Что такое торрент? · Рейтинг и ограничения

Сайт не распространяет и не хранит электронные версии произведений, а лишь предоставляет доступ к создаваемому пользователями каталогу ссылок на торрент-файлы, которые содержат только списки хеш-сумм

[Профиль] [ЛС]
Показать сообщения:    
Ответить на тему

Текущее время: Сегодня 19:23

Часовой пояс: GMT + 4



Вы не можете начинать темы
Вы не можете отвечать на сообщения
Вы не можете редактировать свои сообщения
Вы не можете удалять свои сообщения
Вы не можете голосовать в опросах
Вы не можете прикреплять файлы к сообщениям
Вы не можете скачивать файлы