Мистер Вампир 4 / Mr. Vampire 4 / Jiang shi shu shu (Рикки Лау / Ricky Lau) [1988, Китай, Гонконг, боевые искусства, комедия, мистика, HDRip] VO [Акира]

Ответить на тему
 
Автор Сообщение

user ®

Стаж: 11 лет

Сообщений: 15151

Пост Пост: #1 от 26-Дек-2014 00:30

[Цитировать]

Мистер Вампир 4 / Mr. Vampire 4 / Jiang shi shu shu- -Страна: Китай, Гонконг
Жанр: боевые искусства, комедия, мистика
Год выпуска: 1988
Продолжительность: 01:33:31-Перевод: Одноголосый закадровый [Акира]-Cубтитры: нет
Оригинальная аудиодорожка: нет
Режиссер: Рикки Лау / Ricky Lau
В ролях: Энтони Чан, Ма У, Кар Лок Чин, Лолетта Ли, Юэнь Ва, Фэт Чунг, Yung-cheng Chang, Si-Wai Ho, Полин Юк Ван Вонг, Пэнг Юн Чунг
Описание: Старый буддийский священник возвращается со своей помощницей домой. Его соседом является даос со своим учеником, живущий в другой половине большого дома, единственного во всей деревне. Как и полагается даосу, он содержит при доме морг, в котором хранит неупокоенных мертвецов, борется с нечистой силой и, вообще, не чужд колдовству. Монах хочет провести всю свою оставшуюся жизнь в этом доме, читая сутры и творя прочие обряды. Но вот беда — даос и буддист терпеть друг друга не могут. Один смотрит исключительно наверх, другой смотрит во вне. И им тяжело понять друг друга.
Релиз от -
Качество видео: HDRip
Формат видео: AVI
Видео: MPEG-4 Visual at 981 Кбит/сек; 688 x 384 (1.792) at 23.976 fps
Аудио: MPEG Audio at 128 Кбит/сек; 2 канала, 48,0 КГц
Автор -
MediaInfo
Общее
Полное имя : D:\Фильмы\Азиатские\Мистер Вампир 4\Mr. Vampire 4.1988.HDRip.XviD.745MB. rip by [Assassin's Creed].avi
Формат : AVI
Формат/Информация : Audio Video Interleave
Размер файла : 748 Мбайт
Продолжительность : 1 ч. 33 м.
Общий поток : 1118 Кбит/сек
Программа кодирования : VirtualDubMod 1.5.10.3 | www.virtualdub-fr.org || (build 2550/release)
Библиотека кодирования : VirtualDubMod build 2550/release
Видео
Идентификатор : 0
Формат : MPEG-4 Visual
Профиль формата : Advanced Simple@L5
Параметр BVOP формата : 1
Параметр QPel формата : Нет
Параметр GMC формата : Без точки перехода
Параметр матрицы формата : Default (MPEG)
Идентификатор кодека : XVID
Идентификатор кодека/Подсказка : XviD
Продолжительность : 1 ч. 33 м.
Битрейт : 981 Кбит/сек
Ширина : 688 пикселей
Высота : 384 пикселя
Соотношение сторон : 16:9
Частота кадров : 23,976 кадра/сек
Цветовое пространство : YUV
Субдискретизация насыщенности : 4:2:0
Битовая глубина : 8 бит
Тип развёртки : Прогрессивная
Метод сжатия : С потерями
Бит/(Пиксели*Кадры) : 0.155
Размер потока : 656 Мбайт (88%)
Библиотека кодирования : XviD 1.2.1 (UTC 2008-12-04)
Аудио
Идентификатор : 1
Формат : MPEG Audio
Версия формата : Version 1
Профиль формата : Layer 3
Идентификатор кодека : 55
Идентификатор кодека/Подсказка : MP3
Продолжительность : 1 ч. 33 м.
Вид битрейта : Постоянный
Битрейт : 128 Кбит/сек
Каналы : 2 канала
Частота : 48,0 КГц
Метод сжатия : С потерями
Размер потока : 85,6 Мбайт (11%)
Выравнивание : Соединение по промежуткам
Продолжительность промежутка : 42 мс. (1,00 видеокадр)
Время предзагрузки промежутка : 504 мс.
Библиотека кодирования : LAME3.99r
Настройки программы : -m s -V 4 -q 2 -lowpass 17 -b 128
Скриншот c названием фильма Скриншоты
Скачать

Скачать торрент! Мистер Вампир 4 / Mr. Vampire 4 / Jiang shi shu shu (Рикки Лау / Ricky Lau) [1988, Китай, Гонконг, боевые искусства, комедия, мистика, HDRip] VO [Акира]

Как скачивать? · Что такое торрент? · Рейтинг и ограничения

Сайт не распространяет и не хранит электронные версии произведений, а лишь предоставляет доступ к создаваемому пользователями каталогу ссылок на торрент-файлы, которые содержат только списки хеш-сумм

[Профиль] [ЛС]
Показать сообщения:    
Ответить на тему

Текущее время: Сегодня 20:52

Часовой пояс: GMT + 4



Вы не можете начинать темы
Вы не можете отвечать на сообщения
Вы не можете редактировать свои сообщения
Вы не можете удалять свои сообщения
Вы не можете голосовать в опросах
Вы не можете прикреплять файлы к сообщениям
Вы не можете скачивать файлы