Superнянь / Babysitting (Николас Бенаму / Nicolas Benamou, Филипп Лашо / Philippe Lacheau) [2014, Франция, комедия, HDRip] Dub (iTunes)

Ответить на тему
 
Автор Сообщение

user ®

Стаж: 7 лет 7 месяцев

Сообщений: 20008

Пост Пост: #1 от 26-Дек-2014 00:30

[Цитировать]

Superнянь / Babysitting
Страна: Франция
Жанр: комедия
Год выпуска: 2014
Продолжительность: 01:24:03
Перевод: Профессиональный (дублированный) iTunes
Cубтитры: нет
Режиссер: Николас Бенаму / Nicolas Benamou, Филипп Лашо / Philippe Lacheau
В ролях: Филипп Лашо, Алиса Давид, Венсан Дезанья, Тарек Будали, Жюльен Аррути, Грегуар Людиг, Давид Марсе, Жерар Жюньо, Клотильда Куро, Филипп Дюкен
Описание: Клэр и Марк уезжают на все выходные, оставив своего сына под присмотром «хорошего парня» Фрэнка. На следующее утро парочку будит звонок полицейского, который сообщает, что их дом перевернут верх дном, а сын исчез! На месте происшествия полиция находит камеру, на которой запечатлены все события предыдущей ночи. Только посмотрев видео родители смогут узнать куда исчез их сын и что случилось в эту ночь… когда Фрэнк праздновал 30-летие.
Сэмпл: http://multi-up.com/1022670
Качество видео: HDRip
Формат видео: AVI
Видео: 720x384 (1.88:1), 23.976 fps, XviD build 73 ~2099 kbps avg, 0.32 bit/pixel
Аудио: 48 kHz, AC3 Dolby Digital, 3/2 (L,C,R,l,r) + LFE ch, ~384 kbps
MediaInfo
Формат : AVI
Формат/Информация : Audio Video Interleave
Размер файла : 1,46 Гбайт
Продолжительность : 1 ч. 24 м.
Общий поток : 2493 Кбит/сек
Программа кодирования : VirtualDubMod 1.5.10.3 | www.virtualdub-fr.org || (build 2550/release)
Библиотека кодирования : VirtualDubMod build 2550/release
Видео
Идентификатор : 0
Формат : MPEG-4 Visual
Профиль формата : Advanced Simple@L5
Параметр BVOP формата : 1
Параметр QPel формата : Нет
Параметр GMC формата : Без точки перехода
Параметр матрицы формата : Выборочная
Идентификатор кодека : XVID
Идентификатор кодека/Подсказка : XviD
Продолжительность : 1 ч. 24 м.
Битрейт : 2100 Кбит/сек
Ширина : 720 пикселей
Высота : 384 пикселя
Соотношение сторон : 1,85:1
Частота кадров : 23,976 кадра/сек
Цветовое пространство : YUV
Субдискретизация насыщенности : 4:2:0
Битовая глубина : 8 бит
Тип развёртки : Прогрессивная
Метод сжатия : С потерями
Бит/(Пиксели*Кадры) : 0.317
Размер потока : 1,23 Гбайт (84%)
Библиотека кодирования : XviD 73
Аудио
Идентификатор : 1
Формат : AC-3
Формат/Информация : Audio Coding 3
Расширение режима : CM (complete main)
Параметр Endianness формата : Big
Идентификатор кодека : 2000
Продолжительность : 1 ч. 24 м.
Вид битрейта : Постоянный
Битрейт : 384 Кбит/сек
Каналы : 6 каналов
Расположение каналов : Front: L C R, Side: L R, LFE
Частота : 48,0 КГц
Битовая глубина : 16 бит
Метод сжатия : С потерями
Размер потока : 231 Мбайт (15%)
Выравнивание : Разделение по промежуткам
Продолжительность промежутка : 42 мс. (1,00 видеокадр)
Время предзагрузки промежутка : 500 мс.
Скриншоты Сравнение
http://screenshotcomparison.com/comparison/105851/picture:0 [url=http://***/forum/viewtopic.php?t=4884000]http://***/forum/viewtopic.php?t=4884000[/url]
+ звук, Format settings, Matrix : Default (H.263)
Скачать

Скачать торрент!

Как скачивать? · Что такое торрент? · Рейтинг и ограничения

Сайт не распространяет и не хранит электронные версии произведений, а лишь предоставляет доступ к создаваемому пользователями каталогу ссылок на торрент-файлы, которые содержат только списки хеш-сумм

[Профиль] [ЛС]
Показать сообщения:    
Ответить на тему

Текущее время: Сегодня 06:59

Часовой пояс: GMT + 4



Вы не можете начинать темы
Вы не можете отвечать на сообщения
Вы не можете редактировать свои сообщения
Вы не можете удалять свои сообщения
Вы не можете голосовать в опросах
Вы не можете прикреплять файлы к сообщениям
Вы не можете скачивать файлы