Выпускной / Prom Night (Нельсон МакКормик / Nelson McCormick) [2008, США, Канада, ужасы, триллер, детектив, BDRip 1080p] [Director\'s Cut] MVO + Sub Eng + Original Eng

Ответить на тему
 
Автор Сообщение

user ®

Стаж: 7 лет 7 месяцев

Сообщений: 20008

Пост Пост: #1 от 25-Дек-2014 13:20

[Цитировать]

Выпускной / Prom Night / Director's Cut
Страна: США, Канада
Студия: Columbia/Sony
Жанр: ужасы, триллер, детектив
Год выпуска: 2008
Продолжительность: 01:29:11
Перевод #1: Профессиональный (Многоголосый закадровый)
Перевод #2: Не требуется
Cубтитры: Английские
Оригинальная аудиодорожка: английский
Режиссер: Нельсон МакКормик / Nelson McCormick
В ролях: Бриттани Сноу, Скотт Портер, Джессика Строуп, Дэна Дэвис, Коллинс Пенни, Келли Блац, Джеймс Рэнсон, Брианна Дэвис, Келлан Латс, Мэри Мара
Описание: Школьный бал по случаю завершения школы должен был стать одним из самых запоминающихся событий в жизни Донны. Вместе со своими друзьями она должна была праздновать начало нового этапа жизненного пути, даже ни на секунду не вспоминая о кошмарах прошлого. Однако все обернулось иначе, и вместо веселья выпускной наполнился криками жертв безумного убийцы, жаждущего смерти.

Сэмпл: http://multi-up.com/1022128
Формат: MKV
Источник: Prom Night (2008) [Director's Cut] Blu-ray 1080p AVC DD 5.1
Видео: 1920x800 at 23.976 fps, x264@L4.1, 2pass, ~19124 kbps avg
Аудио#1: Russian: 48 kHz, AC3, 3/2 (L,C,R,l,r) + LFE ch, ~640.00 kbps avg |Многоголосый закадровый, Blu-ray CEE|
Аудио#2: English: 48 kHz, AC3, 3/2 (L,C,R,l,r) + LFE ch, ~640.00 kbps avg
Субтитры: Английские
MediaInfo
Общее
Уникальный идентификатор : 212308745410358492214730653338554870361 (0x9FB92D5173B923FBA84015A3D99C2A59)
Полное имя : F:\Выпускной (2008) [Director's Cut] BDrip 1080p.mkv
Формат : Matroska
Версия формата : Version 4 / Version 2
Размер файла : 12,7 Гбайт
Продолжительность : 1 ч. 29 м.
Общий поток : 20,4 Мбит/сек
Дата кодирования : UTC 2014-12-11 18:06:46
Программа кодирования : mkvmerge v7.3.0 ('Nouages') 64bit built on Oct 22 2014 18:53:34
Библиотека кодирования : libebml v1.3.0 + libmatroska v1.4.1
Attachements : cover
DURATION : 01:25:50.800000000
NUMBER_OF_FRAMES : 876
NUMBER_OF_BYTES : 32513
_STATISTICS_WRITING_APP : mkvmerge v7.3.0 ('Nouages') 64bit built on Oct 22 2014 18:53:34
_STATISTICS_WRITING_DATE_UTC : 2014-12-11 18:06:46
_STATISTICS_TAGS : BPS DURATION NUMBER_OF_FRAMES NUMBER_OF_BYTES
Видео
Идентификатор : 1
Формат : AVC
Формат/Информация : Advanced Video Codec
Профиль формата : High@L4.1
Параметр CABAC формата : Да
Параметр ReFrames формата : 5 кадров
Идентификатор кодека : V_MPEG4/ISO/AVC
Продолжительность : 1 ч. 29 м.
Битрейт : 19,1 Мбит/сек
Ширина : 1920 пикселей
Высота : 800 пикселей
Соотношение сторон : 2,40:1
Режим частоты кадров : Постоянный
Частота кадров : 23,976 кадра/сек
Цветовое пространство : YUV
Субдискретизация насыщенности : 4:2:0
Битовая глубина : 8 бит
Тип развёртки : Прогрессивная
Бит/(Пиксели*Кадры) : 0.519
Размер потока : 11,7 Гбайт (92%)
Заголовок : Prom Night (2008) [Director's Cut] BDRip 1080p
Библиотека кодирования : x264 core 142 r2491 24e4fed
Настройки программы : cabac=1 / ref=5 / deblock=1:-3:-3 / analyse=0x3:0x113 / me=umh / subme=11 / psy=1 / psy_rd=1.00:0.00 / mixed_ref=1 / me_range=24 / chroma_me=1 / trellis=2 / 8x8dct=1 / cqm=0 / deadzone=21,11 / fast_pskip=0 / chroma_qp_offset=-2 / threads=12 / lookahead_threads=3 / sliced_threads=0 / nr=0 / decimate=0 / interlaced=0 / bluray_compat=0 / constrained_intra=0 / bframes=12 / b_pyramid=2 / b_adapt=2 / b_bias=0 / direct=3 / weightb=1 / open_gop=0 / weightp=2 / keyint=240 / keyint_min=23 / scenecut=40 / intra_refresh=0 / rc=2pass / mbtree=0 / bitrate=19124 / ratetol=1.0 / qcomp=0.60 / qpmin=10 / qpmax=51 / qpstep=4 / cplxblur=20.0 / qblur=0.5 / ip_ratio=1.40 / pb_ratio=1.30 / aq=1:1.00
Язык : English
Default : Да
Forced : Нет
DURATION : 01:29:11.397000000
NUMBER_OF_FRAMES : 128305
NUMBER_OF_BYTES : 12794245901
_STATISTICS_WRITING_APP : mkvmerge v7.3.0 ('Nouages') 64bit built on Oct 22 2014 18:53:34
_STATISTICS_WRITING_DATE_UTC : 2014-12-11 18:06:46
_STATISTICS_TAGS : BPS DURATION NUMBER_OF_FRAMES NUMBER_OF_BYTES
Аудио #1
Идентификатор : 2
Формат : AC-3
Формат/Информация : Audio Coding 3
Расширение режима : CM (complete main)
Параметр Endianness формата : Big
Идентификатор кодека : A_AC3
Продолжительность : 1 ч. 29 м.
Вид битрейта : Постоянный
Битрейт : 640 Кбит/сек
Каналы : 6 каналов
Расположение каналов : Front: L C R, Side: L R, LFE
Частота : 48,0 КГц
Битовая глубина : 16 бит
Метод сжатия : С потерями
Размер потока : 408 Мбайт (3%)
Заголовок : [Blu-ray CEE] MVO - AC3 5.1 @ 640 kbps
Язык : Russian
Default : Да
Forced : Нет
Аудио #2
Идентификатор : 3
Формат : AC-3
Формат/Информация : Audio Coding 3
Расширение режима : CM (complete main)
Параметр Endianness формата : Big
Идентификатор кодека : A_AC3
Продолжительность : 1 ч. 29 м.
Вид битрейта : Постоянный
Битрейт : 640 Кбит/сек
Каналы : 6 каналов
Расположение каналов : Front: L C R, Side: L R, LFE
Частота : 48,0 КГц
Битовая глубина : 16 бит
Метод сжатия : С потерями
Размер потока : 408 Мбайт (3%)
Заголовок : [Blu-ray CEE] AC3 5.1 @ 640 kbps
Язык : English
Default : Нет
Forced : Нет
Текст
Идентификатор : 4
Формат : UTF-8
Идентификатор кодека : S_TEXT/UTF8
Идентификатор кодека/Информация : UTF-8 Plain Text
Заголовок : [SRT/UTF8] Full
Язык : English
Default : Да
Forced : Нет
log
[info]: frame I:787   Avg QP:14.58  size:283262
[info]: frame P:28687 Avg QP:15.80  size:135448
[info]: frame B:98831 Avg QP:17.71  size: 87885
Скриншоты: слева Blu-ray, справа рип
  
  
  
Скачать

Скачать торрент!

Как скачивать? · Что такое торрент? · Рейтинг и ограничения

Сайт не распространяет и не хранит электронные версии произведений, а лишь предоставляет доступ к создаваемому пользователями каталогу ссылок на торрент-файлы, которые содержат только списки хеш-сумм

[Профиль] [ЛС]
Показать сообщения:    
Ответить на тему

Текущее время: Сегодня 00:12

Часовой пояс: GMT + 4



Вы не можете начинать темы
Вы не можете отвечать на сообщения
Вы не можете редактировать свои сообщения
Вы не можете удалять свои сообщения
Вы не можете голосовать в опросах
Вы не можете прикреплять файлы к сообщениям
Вы не можете скачивать файлы