Индеец в шкафу / The Indian in the Cupboard (Фрэнк Оз / Frank Oz) [1995, США, Фэнтези, Приключения, Семейный, HDTVRip 720p] MVO + Original Eng

Ответить на тему
 
Автор Сообщение

user ®

Стаж: 7 лет 7 месяцев

Сообщений: 20008

Пост Пост: #1 от 24-Дек-2014 23:40

[Цитировать]

Индеец в шкафу / The Indian in the Cupboard
Страна: США
Студия: Columbia Pictures Corporation, Paramount Pictures
Жанр: Фэнтези, Приключения, Семейный
Год выпуска: 1995
Продолжительность: 01:36:09
Перевод: Профессиональный (многоголосый закадровый)
Cубтитры: нет
Оригинальная аудиодорожка: английский
Режиссер: Фрэнк Оз / Frank Oz
В ролях: Хэл Скардино, Лайтфут, Линдсэй Круз, Ричард Дженкинс, Риши Бхат, Стив Куган, Дэвид Кейт, Сакина Джеффри, Винсент Картайзер, Нестор Серрано (Hal Scardino, Litefoot, Lindsay Crouse, Richard Jenkins, Rishi Bhat, Steve Coogan, David Keith, Sakina Jaffrey, Vincent Kartheiser, Nestor Serrano)
Описание: Малыш Омри в день своего девятилетия получил много прекрасных подарков, два из которых, на первый взгляд, не представляли особой ценности - маленький пластиковый индеец и старый шкафчик. Но именно эти неприметные "дары" сулят юному герою много неожиданностей и сюрпризов.
Этот фильм, как и другие работы Оза, легко смотрится, достаточно весел и достаточно серьёзен. Детско-семейная картина затрагивает совсем не детские проблемы. Шкафчик, способный оживлять помещаемые в него игрушки, оказывается предметом не белой, а скорее чёрной магии. Индеец, а за ним ковбой, выдёргиваются из истории, из своей реальной жизни, и хозяин шкафа предстаёт для них в виде демона, властелина вселенной. Его попытки помочь оборачиваются неудачами, и малец начинает задумываться над тем, что такое живая душа, свободная личность? Справится ли он с функцией бога для этих людей? Всё больше игрушек оживляется и всё тяжелее вырваться из порочного круга…
Доп. информация: Автор рипа - AmPirCo. Добавлена русская дорожка, взятая из [url=http://***/forum/viewtopic.php?t=2166925]раздачи ilya_l[/url]. Большое спасибо предоставившим материалы! На протяжении всего фильма присутствует лого телеканала.
Сэмпл
Тип релиза: HDTVRip 720p
Контейнер: MKV
Видео: 1280x720p (16:9), 23,976 fps, x264, 6645 kbps
Аудио 1: Russian (Dolby AC3, 2 ch) 192 Kbps / 48 000 Hz
Аудио 2: English (Dolby AC3, 2 ch) 192 Kbps / 48 000 Hz
MediaInfo
Уникальный идентификатор : 218473849460597084639257592993098783300 (0xA45C886A7112A6BE87023963D6645A44)
Полное имя : The.Indian.in.the.Cupboard.(1995).HDTVRip.720p.x264.RUS.ENG.AC3.mkv
Формат : Matroska
Версия формата : Version 4 / Version 2
Размер файла : 4,72 Гбайт
Продолжительность : 1 ч. 36 м.
Общий поток : 7029 Кбит/сек
Название фильма : The Indian in the Cupboard (1995) HDTVRip 720p
Дата кодирования : UTC 2014-12-20 21:45:23
Программа кодирования : mkvmerge v7.4.0 ('Circles') 32bit built on Dec 12 2014 12:10:09
Библиотека кодирования : libebml v1.3.0 + libmatroska v1.4.1
DURATION : 01:36:08.960000000
NUMBER_OF_FRAMES : 180280
NUMBER_OF_BYTES : 138455040
_STATISTICS_WRITING_APP : mkvmerge v7.4.0 ('Circles') 32bit built on Dec 12 2014 12:10:09
_STATISTICS_WRITING_DATE_UTC : 2014-12-20 21:45:23
_STATISTICS_TAGS : BPS DURATION NUMBER_OF_FRAMES NUMBER_OF_BYTES
Видео
Идентификатор : 1
Формат : AVC
Формат/Информация : Advanced Video Codec
Профиль формата : High@L4.1
Параметр CABAC формата : Да
Параметр ReFrames формата : 8 кадров
Идентификатор кодека : V_MPEG4/ISO/AVC
Продолжительность : 1 ч. 36 м.
Битрейт : 6645 Кбит/сек
Ширина : 1280 пикселей
Высота : 720 пикселей
Соотношение сторон : 16:9
Режим частоты кадров : Постоянный
Частота кадров : 23,976 кадра/сек
Цветовое пространство : YUV
Субдискретизация насыщенности : 4:2:0
Битовая глубина : 8 бит
Тип развёртки : Прогрессивная
Бит/(Пиксели*Кадры) : 0.301
Размер потока : 4,37 Гбайт (93%)
Библиотека кодирования : x264 core 142 r2431 ac76440
Настройки программы : cabac=1 / ref=8 / deblock=1:-3:-3 / analyse=0x3:0x113 / me=umh / subme=8 / psy=1 / psy_rd=1.10:0.00 / mixed_ref=1 / me_range=32 / chroma_me=1 / trellis=2 / 8x8dct=1 / cqm=0 / deadzone=21,11 / fast_pskip=0 / chroma_qp_offset=-2 / threads=6 / lookahead_threads=1 / sliced_threads=0 / nr=0 / decimate=1 / interlaced=0 / bluray_compat=0 / constrained_intra=0 / bframes=6 / b_pyramid=2 / b_adapt=2 / b_bias=0 / direct=3 / weightb=1 / open_gop=0 / weightp=2 / keyint=240 / keyint_min=23 / scenecut=40 / intra_refresh=0 / rc_lookahead=50 / rc=2pass / mbtree=0 / bitrate=6645 / ratetol=1.0 / qcomp=0.60 / qpmin=10 / qpmax=51 / qpstep=4 / cplxblur=20.0 / qblur=0.5 / vbv_maxrate=62500 / vbv_bufsize=78125 / nal_hrd=none / filler=0 / ip_ratio=1.40 / pb_ratio=1.30 / aq=1:1.00
Язык : English
Default : Да
Forced : Нет
DURATION : 01:36:08.930000000
NUMBER_OF_FRAMES : 138316
NUMBER_OF_BYTES : 4790375866
_STATISTICS_WRITING_APP : mkvmerge v7.4.0 ('Circles') 32bit built on Dec 12 2014 12:10:09
_STATISTICS_WRITING_DATE_UTC : 2014-12-20 21:45:23
_STATISTICS_TAGS : BPS DURATION NUMBER_OF_FRAMES NUMBER_OF_BYTES
Аудио #1
Идентификатор : 2
Формат : AC-3
Формат/Информация : Audio Coding 3
Расширение режима : CM (complete main)
Параметр Endianness формата : Big
Идентификатор кодека : A_AC3
Продолжительность : 1 ч. 36 м.
Вид битрейта : Постоянный
Битрейт : 192 Кбит/сек
Каналы : 2 канала
Расположение каналов : Front: L R
Частота : 48,0 КГц
Битовая глубина : 16 бит
Метод сжатия : С потерями
Размер потока : 132 Мбайт (3%)
Язык : Russian
Default : Да
Forced : Нет
Аудио #2
Идентификатор : 3
Формат : AC-3
Формат/Информация : Audio Coding 3
Расширение режима : CM (complete main)
Параметр Endianness формата : Big
Идентификатор кодека : A_AC3
Продолжительность : 1 ч. 36 м.
Вид битрейта : Постоянный
Битрейт : 192 Кбит/сек
Каналы : 2 канала
Расположение каналов : Front: L R
Частота : 48,0 КГц
Битовая глубина : 16 бит
Метод сжатия : С потерями
Размер потока : 132 Мбайт (3%)
Язык : English
Default : Нет
Forced : Нет
Скриншоты
Скачать

Скачать торрент!

Как скачивать? · Что такое торрент? · Рейтинг и ограничения

Сайт не распространяет и не хранит электронные версии произведений, а лишь предоставляет доступ к создаваемому пользователями каталогу ссылок на торрент-файлы, которые содержат только списки хеш-сумм

[Профиль] [ЛС]
Показать сообщения:    
Ответить на тему

Текущее время: Сегодня 06:28

Часовой пояс: GMT + 4



Вы не можете начинать темы
Вы не можете отвечать на сообщения
Вы не можете редактировать свои сообщения
Вы не можете удалять свои сообщения
Вы не можете голосовать в опросах
Вы не можете прикреплять файлы к сообщениям
Вы не можете скачивать файлы