Ришелье. Мантия и кровь / Richelieu, la pourpre et le sang (Анри Эльман / Henri Helman) [2014, Франция, исторический, DVB] DVO (студия "СВ Дубль")

Ответить на тему
 
Автор Сообщение

user ®

Стаж: 7 лет 7 месяцев

Сообщений: 20008

Пост Пост: #1 от 24-Дек-2014 23:40

[Цитировать]

Ришелье. Мантия и кровь / Richelieu, la pourpre et le sang
Страна: Франция
Жанр: исторический
Год выпуска: 2014
Продолжительность: 01:35:52
Перевод: Профессиональный (двухголосый закадровый) студия "СВ Дубль"
Cубтитры: нет
Режиссер: Анри Эльман / Henri Helman
В ролях: Жак Перрен, Пьер Буланже, Стефан Герен-Тиллье, Элен Сезаре, Гаэлль Бона, Сесиль Буа, Ингрид Доннадье, Жан Дэлль, Мартюрен Вольтц, Эрик Буньон, Микаэль Вандер-Мерен
Описание: Самый влиятельный человек Франции кардинал Ришелье оказывает протекцию маркизу де Сен-Мару. Молодой маркиз, наделенный живым умом и приятной внешностью, быстро становится любимцем Людовика XIII. Но вместо того, чтобы шпионить для Ришелье, Сен-Мар становится в ряды заговорщиков…
Доп. информация: Запись потока *.ts со спутника Ямал 202, 49° в.д., ремукс в *.mpg программой VideoReDo.
Качество видео: DVB
Формат видео: MPEG-PS
Видео: MPEG Video, 720(768)х576 (4:3), 25,000 кадр/сек, 5323 Кбит/сек
Аудио: MPEG Audio, 48,0 КГц, 2 канала, 256 Кбит/сек
Сэмпл: http://multi-up.com/1011094
Сравнение
[url=http://***/forum/viewtopic.php?t=4861340]http://***/forum/viewtopic.php?t=4861340[/url]
http://screenshotcomparison.com/comparison/98809/
MediaInfo
Общее
Полное имя : D:\Torrent\Ришелье Мантия и кровь (КУЛЬТУРА 49).mpg
Формат : MPEG-PS
Размер файла : 3,97 Гбайт
Продолжительность : 1 ч. 39 м.
Режим общего битрейта : Переменный
Общий поток : 5692 Кбит/сек
Видео
Идентификатор : 224 (0xE0)
Формат : MPEG Video
Версия формата : Version 2
Профиль формата : Main@Main
Параметр BVOP формата : Да
Параметр матрицы формата : Выборочная
Параметр GOP формата : M=3, N=15
Продолжительность : 1 ч. 39 м.
Вид битрейта : Переменный
Битрейт : 5323 Кбит/сек
Максимальный битрейт : 15,0 Мбит/сек
Ширина : 720 пикселей
Высота : 576 пикселей
Соотношение сторон : 4:3
Частота кадров : 25,000 кадров/сек
Стандарт вещания : PAL
Цветовое пространство : YUV
Субдискретизация насыщенности : 4:2:0
Битовая глубина : 8 бит
Тип развёртки : Чересстрочная
Порядок развёртки : Верхнее поле первое
Метод сжатия : С потерями
Бит/(Пиксели*Кадры) : 0.513
Временной код первого кадра : 00:00:00:00
Оригинал временного кода : Group of pictures header
Размер потока : 3,71 Гбайт (94%)
Аудио
Идентификатор : 192 (0xC0)
Формат : MPEG Audio
Версия формата : Version 1
Профиль формата : Layer 2
Продолжительность : 1 ч. 39 м.
Вид битрейта : Постоянный
Битрейт : 256 Кбит/сек
Каналы : 2 канала
Частота : 48,0 КГц
Метод сжатия : С потерями
Задержка видео : 1 мс.
Размер потока : 183 Мбайт (4%)
Скриншот c названием фильма Скриншоты
Скачать

Скачать торрент!

Как скачивать? · Что такое торрент? · Рейтинг и ограничения

Сайт не распространяет и не хранит электронные версии произведений, а лишь предоставляет доступ к создаваемому пользователями каталогу ссылок на торрент-файлы, которые содержат только списки хеш-сумм

[Профиль] [ЛС]
Показать сообщения:    
Ответить на тему

Текущее время: Сегодня 12:47

Часовой пояс: GMT + 4



Вы не можете начинать темы
Вы не можете отвечать на сообщения
Вы не можете редактировать свои сообщения
Вы не можете удалять свои сообщения
Вы не можете голосовать в опросах
Вы не можете прикреплять файлы к сообщениям
Вы не можете скачивать файлы