Ярость / Fury (Дэвид Эйр / David Ayer) [2014, Великобритания, США, Китай, Боевик, Драма, Военный, DVDScreener] Dub (Line)

Ответить на тему
 
Автор Сообщение

user ®

Стаж: 7 лет 7 месяцев

Сообщений: 20008

Пост Пост: #1 от 24-Дек-2014 23:40

[Цитировать]

Ярость / Fury
Страна: Великобритания, США, Китай
Производство: Columbia Pictures, Crave Films, Grisbi
Жанр: Боевик, Драма, Военный
Год выпуска: 2014
Продолжительность: 02:14:59
Перевод: Профессиональный (дублированный) Line
Cубтитры: нет
Режиссер: Дэвид Эйр / David Ayer
В ролях: Брэд Питт, Логан Лерман, Шайа ЛаБаф, Майкл Пенья, Джон Бернтал, Джейсон Айзекс, Джим Пэррак, Брэд Уильям Хенке, Кевин Вэнс, Завьер Сэмюэл, Анамария Маринка, Скотт Иствуд
Описание: Стоит апрель 1945 года, и победа над немцами уже близка: союзники уверенно продвигаются вглубь вражеской территории, и оказываемое им сопротивление становится слабее день ото дня. Это, однако, совсем не значит, что на пути к победе союзные войска не потеряют еще множество людей, и многие солдаты сознают, что смерть ждет на расстоянии вытянутой руки. Среди закаленных в бою пессимистов, каждый день ведущих ожесточенные бои во имя победы, экипаж танка, на чьем дуле намалевано слово «Ярость».

Качество видео: DVDScreener
Формат видео: AVI
Видео: XviD, 720x304, 2.35:1, 23.976 fps, 0.249 bit/pixel
Аудио: AC3, 128 Kb/s, 2 ch, 48.0 KHz
Дата выхода DVD релиза: 12 февраля 2015, «CP Дистрибуция»
MediaInfo
C:\Users\Арсен\Desktop\Yarost.2014.D.DVDScr.1400MB.avi
General
Complete name : C:\Users\Арсен\Desktop\Yarost.2014.D.DVDScr.1400MB.avi
Format : AVI
Format/Info : Audio Video Interleave
File size : 1.36 GiB
Duration : 2h 14mn
Overall bit rate : 1 446 Kbps
Writing application : VirtualDubMod 1.5.10.2 (build 2540/release)
Writing library : VirtualDubMod build 2540/release
Video #0
ID : 0
Format : MPEG-4 Visual
Format profile : Advanced Simple@L5
Format settings, BVOP : 2
Format settings, QPel : No
Format settings, GMC : No warppoints
Format settings, Matrix : Default (MPEG)
Codec ID : XVID
Codec ID/Hint : XviD
Duration : 2h 14mn
Bit rate : 1 309 Kbps
Width : 720 pixels
Height : 304 pixels
Display aspect ratio : 2.35:1
Frame rate : 23.976 fps
Color space : YUV
Chroma subsampling : 4:2:0
Bit depth : 8 bits
Scan type : Progressive
Compression mode : Lossy
Bits/(Pixel*Frame) : 0.249
Stream size : 1.23 GiB (90%)
Writing library : XviD 1.2.1 (UTC 2008-12-04)
Audio #1
ID : 1
Format : AC-3
Format/Info : Audio Coding 3
Mode extension : CM (complete main)
Codec ID : 2000
Duration : 2h 14mn
Bit rate mode : Constant
Bit rate : 128 Kbps
Channel(s) : 2 channels
Channel positions : Front: L R
Sampling rate : 48.0 KHz
Bit depth : 16 bits
Compression mode : Lossy
Stream size : 124 MiB (9%)
Alignment : Split accross interleaves
Interleave, duration : 42 ms (1.00 video frame)
Interleave, preload duration : 500 ms
Скриншот c названием фильма Скриншоты
Скачать

Скачать торрент!

Как скачивать? · Что такое торрент? · Рейтинг и ограничения

Сайт не распространяет и не хранит электронные версии произведений, а лишь предоставляет доступ к создаваемому пользователями каталогу ссылок на торрент-файлы, которые содержат только списки хеш-сумм

[Профиль] [ЛС]
Показать сообщения:    
Ответить на тему

Текущее время: Сегодня 08:08

Часовой пояс: GMT + 4



Вы не можете начинать темы
Вы не можете отвечать на сообщения
Вы не можете редактировать свои сообщения
Вы не можете удалять свои сообщения
Вы не можете голосовать в опросах
Вы не можете прикреплять файлы к сообщениям
Вы не можете скачивать файлы