Обитель проклятых / Stonehearst Asylum / Eliza Graves (Брэд Андерсон / Brad Anderson) [2014, США, триллер, BDRip] Dub + Original Eng + subs (Eng, Eng SDH, Eng SDH Colored)

Ответить на тему
 
Автор Сообщение

user ®

Стаж: 7 лет 7 месяцев

Сообщений: 20008

Пост Пост: #1 от 24-Дек-2014 20:30

[Цитировать]

Обитель проклятых / Stonehearst Asylum / Eliza Graves- Год выпуска: 2014
Страна: США
Жанр: триллер
Продолжительность: 01:52:40
Перевод: Профессиональный (полное дублирование) BD RUS
+ Оригинальная звуковая дорожка
Субтитры: Английские (full, sdh, sdh colored) (внешние srt*)-Режиссер: Брэд Андерсон / Brad Anderson
В ролях: Кейт Бекинсейл, Джим Стёрджесс, Бен Кингсли, Дэвид Тьюлис, Майкл Кейн, Брендан Глисон, Джейсон Флеминг, Софи Кеннеди Кларк, Шинед Кьюсак, Эдмунд Кингсли
О фильме: Молодой медицинский работник Эдвард устраивается работать в психиатрическую лечебницу. Вскоре становится известно об исчезновении одного из лечащих врачей психушки. Эдвард обнаруживает, что его похитили пациенты больницы, а вскоре и вся психушка оказывается захвачена ими…-Релиз:
Автор: yaroslaigor
Качество: BDRip (источник: Talian70 / BD-Remux [US Transfer] / 1080p)
Формат: AVI
Видео: 720x304 (2.37:1), 23.976 fps, XviD build 65 ~1871 kbps avg, 0.36 bit/pixel
Аудио #1: 48 kHz, AC3 Dolby Digital, 3/2 (L,C,R,l,r) + LFE ch, ~448.00 kbps avg rus
Аудио #2: 48 kHz, AC3 Dolby Digital, 3/2 (L,C,R,l,r) + LFE ch, ~448.00 kbps avg eng
Размер: 2235.61 Mb (1/2 DVD-R)
Скачать: Семпл-

Кадры из фильма
-
Mi
Формат : AVI
Формат/Информация : Audio Video Interleave
Профиль формата : OpenDML
Размер файла : 2,18 Гбайт
Продолжительность : 1 ч. 52 м.
Общий поток : 2774 Кбит/сек
Название фильма : Обитель проклятых / Stonehearst Asylum / Eliza Graves (2014) BDRip
Режиссёр : yaroslaigor
Жанр : триллер
Программа кодирования : VirtualDubMod 1.5.10.2 (build 2542/release)
Примечание : 22.12.2014
Видео
Идентификатор : 0
Формат : MPEG-4 Visual
Профиль формата : Advanced Simple@L5
Параметр BVOP формата : 1
Параметр QPel формата : Нет
Параметр GMC формата : Без точки перехода
Параметр матрицы формата : Выборочная
Идентификатор кодека : XVID
Идентификатор кодека/Подсказка : XviD
Продолжительность : 1 ч. 52 м.
Битрейт : 1860 Кбит/сек
Ширина : 720 пикселей
Высота : 304 пикселя
Соотношение сторон : 2,35:1
Частота кадров : 23,976 кадра/сек
Цветовое пространство : YUV
Субдискретизация насыщенности : 4:2:0
Битовая глубина : 8 бит
Тип развёртки : Прогрессивная
Метод сжатия : С потерями
Бит/(Пиксели*Кадры) : 0.354
Размер потока : 1,46 Гбайт (67%)
Библиотека кодирования : XviD 65
Аудио #1
Идентификатор : 1
Формат : AC-3
Формат/Информация : Audio Coding 3
Расширение режима : CM (complete main)
Параметр Endianness формата : Big
Идентификатор кодека : 2000
Продолжительность : 1 ч. 52 м.
Вид битрейта : Постоянный
Битрейт : 448 Кбит/сек
Каналы : 6 каналов
Расположение каналов : Front: L C R, Side: L R, LFE
Частота : 48,0 КГц
Битовая глубина : 16 бит
Метод сжатия : С потерями
Размер потока : 361 Мбайт (16%)
Выравнивание : Разделение по промежуткам
Продолжительность промежутка : 42 мс. (1,00 видеокадр)
Время предзагрузки промежутка : 500 мс.
Аудио #2
Идентификатор : 2
Формат : AC-3
Формат/Информация : Audio Coding 3
Расширение режима : CM (complete main)
Параметр Endianness формата : Big
Идентификатор кодека : 2000
Продолжительность : 1 ч. 52 м.
Вид битрейта : Постоянный
Битрейт : 448 Кбит/сек
Каналы : 6 каналов
Расположение каналов : Front: L C R, Side: L R, LFE
Частота : 48,0 КГц
Битовая глубина : 16 бит
Метод сжатия : С потерями
Размер потока : 361 Мбайт (16%)
Выравнивание : Разделение по промежуткам
Продолжительность промежутка : 42 мс. (1,00 видеокадр)
Время предзагрузки промежутка : 500 мс.
-
Скачать

Скачать торрент!

Как скачивать? · Что такое торрент? · Рейтинг и ограничения

Сайт не распространяет и не хранит электронные версии произведений, а лишь предоставляет доступ к создаваемому пользователями каталогу ссылок на торрент-файлы, которые содержат только списки хеш-сумм

[Профиль] [ЛС]
Показать сообщения:    
Ответить на тему

Текущее время: Сегодня 21:58

Часовой пояс: GMT + 4



Вы не можете начинать темы
Вы не можете отвечать на сообщения
Вы не можете редактировать свои сообщения
Вы не можете удалять свои сообщения
Вы не можете голосовать в опросах
Вы не можете прикреплять файлы к сообщениям
Вы не можете скачивать файлы