Обратная сторона правды / Freedomland (Джо Рот / Joe Roth) [2006, США, триллер, драма, криминал, детектив, BDRip 1080p] DVOx2 + Sub Eng + Original Eng

Ответить на тему
 
Автор Сообщение

user ®

Стаж: 7 лет 7 месяцев

Сообщений: 20008

Пост Пост: #1 от 24-Дек-2014 01:15

[Цитировать]

Обратная сторона правды / Freedomland
Страна: США
Студия: Revolution Studios / Scott Rudin Productions
Жанр: триллер, драма, криминал, детектив
Год выпуска: 2006
Продолжительность: 01:53:02
Перевод: Профессиональный (двухголосый закадровый) R5
Перевод 2: Профессиональный (двухголосый закадровый)
Cубтитры: английские
Оригинальная аудиодорожка: английский
Режиссер: Джо Рот / Joe Roth
В ролях: Сэмюэл Л. Джексон, Джулианна Мур, Иди Фалько, Рон Элдард, Уильям Форсайт, Онжаню Эллис, Энтони Маки, ЛаТаня Ричардсон, Кларк Питерс, Питер Фридман
Описание: Неизвестный выкидывает мать-одиночку из машины, и растворяется с нею в ночи. Угонщик не заметил сидящего на заднем сидении четырехлетнего ребенка. Женщина обвиняет в преступлении чернокожего, провоцируя межрасовый скандал, погасить который под силу лишь белой журналистке и черному детективу, расследующим дело.
Imdb|Kinopoisk|Сэмпл
Тип релиза: BDRip 1080p
Контейнер: MKV
Видео: MPEG4 Video (H264) 1920x800 23.976fps 15.2 Mbps
Аудио: Русский AC-3 / 6 ch / 48.0 KHz / 384 Kbps
Аудио 2: Русский AC-3 / 2 ch / 48.0 KHz / 192 Kbps
Аудио 3: Английский AC-3 / 6 ch / 48.0 KHz / 640 Kbps
Формат субтитров: softsub (SRT)

MediaInfo
General
Unique ID : 252201838424678918068084363513181580197 (0xBDBC4EA8EDF59EA19A1C611001812BA5)
Complete name : C:\Users\Вика\Desktop\Freedomland.2006.BDRip.1080p.x264.mkv
Format : Matroska
Format version : Version 4 / Version 2
File size : 13.0 GiB
Duration : 1h 53mn
Overall bit rate : 16.4 Mbps
Encoded date : UTC 2014-12-19 13:45:06
Writing application : mkvmerge v7.4.0 ('Circles') 64bit built on Dec 12 2014 12:19:56
Writing library : libebml v1.3.0 + libmatroska v1.4.1
DURATION : 01:47:44.207000000
NUMBER_OF_FRAMES : 1463
NUMBER_OF_BYTES : 57669
_STATISTICS_WRITING_APP : mkvmerge v7.4.0 ('Circles') 64bit built on Dec 12 2014 12:19:56
_STATISTICS_WRITING_DATE_UTC : 2014-12-19 13:45:06
_STATISTICS_TAGS : BPS DURATION NUMBER_OF_FRAMES NUMBER_OF_BYTES
Video
ID : 1
Format : AVC
Format/Info : Advanced Video Codec
Format profile : High@L4.1
Format settings, CABAC : Yes
Format settings, ReFrames : 5 frames
Codec ID : V_MPEG4/ISO/AVC
Duration : 1h 53mn
Bit rate : 15.2 Mbps
Width : 1 920 pixels
Height : 800 pixels
Display aspect ratio : 2.40:1
Frame rate mode : Constant
Frame rate : 23.976 fps
Color space : YUV
Chroma subsampling : 4:2:0
Bit depth : 8 bits
Scan type : Progressive
Bits/(Pixel*Frame) : 0.413
Stream size : 11.7 GiB (91%)
Title : MPEG-4AVC@High Profile L4.1, 24/1.001 fps @ 15200 kbps
Writing library : x264 core 128 r2216+688+33 06dac27 tMod+MixAQ [8-bit@4:2:0 X86]
Encoding settings : cabac=1 / ref=5 / deblock=1:-3:-3 / analyse=0x3:0x133 / me=umh / subme=11 / psy=1 / fade_compensate=0.00 / psy_rd=1.00:0.00 / mixed_ref=1 / me_range=32 / chroma_me=1 / trellis=2 / 8x8dct=1 / cqm=0 / deadzone=21,11 / fast_pskip=0 / chroma_qp_offset=-2 / threads=24 / lookahead_threads=4 / sliced_threads=0 / nr=0 / decimate=0 / interlaced=0 / bluray_compat=0 / constrained_intra=0 / fgo=0 / bframes=6 / b_pyramid=2 / b_adapt=2 / b_bias=0 / direct=3 / weightb=1 / open_gop=0 / weightp=2 / keyint=240 / keyint_min=23 / scenecut=40 / intra_refresh=0 / rc_lookahead=60 / rc=2pass / mbtree=1 / bitrate=15200 / ratetol=1.0 / qcomp=0.60 / qpmin=0 / qpmax=69 / qpstep=4 / cplxblur=20.0 / qblur=0.5 / vbv_maxrate=45000 / vbv_bufsize=45000 / nal_hrd=none / ip_ratio=1.40 / aq=1 / aq-strength=0.60 / aq-sensitivity=10.00 / aq-ifactor=1.00 / aq-pfactor=1.00 / aq-bfactor=1.00 / aq2=0
Language : English
Default : Yes
Forced : No
DURATION : 01:53:01.817000000
NUMBER_OF_FRAMES : 162601
NUMBER_OF_BYTES : 12878238091
_STATISTICS_WRITING_APP : mkvmerge v7.4.0 ('Circles') 64bit built on Dec 12 2014 12:19:56
_STATISTICS_WRITING_DATE_UTC : 2014-12-19 13:45:06
_STATISTICS_TAGS : BPS DURATION NUMBER_OF_FRAMES NUMBER_OF_BYTES
Audio #1
ID : 2
Format : AC-3
Format/Info : Audio Coding 3
Mode extension : CM (complete main)
Format settings, Endianness : Big
Codec ID : A_AC3
Duration : 1h 53mn
Bit rate mode : Constant
Bit rate : 384 Kbps
Channel(s) : 6 channels
Channel positions : Front: L C R, Side: L R, LFE
Sampling rate : 48.0 KHz
Bit depth : 16 bits
Compression mode : Lossy
Stream size : 310 MiB (2%)
Title : DVO R5
Language : Russian
Default : Yes
Forced : No
Audio #2
ID : 3
Format : AC-3
Format/Info : Audio Coding 3
Mode extension : CM (complete main)
Format settings, Endianness : Big
Codec ID : A_AC3
Duration : 1h 53mn
Bit rate mode : Constant
Bit rate : 192 Kbps
Channel(s) : 2 channels
Channel positions : Front: L R
Sampling rate : 48.0 KHz
Bit depth : 16 bits
Compression mode : Lossy
Stream size : 155 MiB (1%)
Title : DVO
Language : Russian
Default : No
Forced : No
Audio #3
ID : 4
Format : AC-3
Format/Info : Audio Coding 3
Mode extension : CM (complete main)
Format settings, Endianness : Big
Codec ID : A_AC3
Duration : 1h 53mn
Bit rate mode : Constant
Bit rate : 640 Kbps
Channel(s) : 6 channels
Channel positions : Front: L C R, Side: L R, LFE
Sampling rate : 48.0 KHz
Bit depth : 16 bits
Compression mode : Lossy
Stream size : 517 MiB (4%)
Title : English Dolby Digital Audio 5.1 @ 640 kbps
Language : English
Default : No
Forced : No
Text
ID : 5
Format : UTF-8
Codec ID : S_TEXT/UTF8
Codec ID/Info : UTF-8 Plain Text
Language : English
Default : No
Forced : No
Menu
00:00:00.000 : en:00:00:00.000
00:08:22.335 : en:00:08:22.335
00:16:50.384 : en:00:16:50.384
00:25:06.880 : en:00:25:06.880
00:31:52.202 : en:00:31:52.202
00:37:52.562 : en:00:37:52.562
00:45:10.666 : en:00:45:10.666
00:52:48.415 : en:00:52:48.415
00:58:13.699 : en:00:58:13.699
01:04:34.204 : en:01:04:34.204
01:12:21.462 : en:01:12:21.462
01:18:02.177 : en:01:18:02.177
01:22:19.560 : en:01:22:19.560
01:30:40.101 : en:01:30:40.101
01:33:36.528 : en:01:33:36.528
01:39:55.781 : en:01:39:55.781
Скриншоты
Скачать

Скачать торрент!

Как скачивать? · Что такое торрент? · Рейтинг и ограничения

Сайт не распространяет и не хранит электронные версии произведений, а лишь предоставляет доступ к создаваемому пользователями каталогу ссылок на торрент-файлы, которые содержат только списки хеш-сумм

[Профиль] [ЛС]
Показать сообщения:    
Ответить на тему

Текущее время: Сегодня 12:26

Часовой пояс: GMT + 4



Вы не можете начинать темы
Вы не можете отвечать на сообщения
Вы не можете редактировать свои сообщения
Вы не можете удалять свои сообщения
Вы не можете голосовать в опросах
Вы не можете прикреплять файлы к сообщениям
Вы не можете скачивать файлы