Я - начало / I Origins (Майк Кэхилл / Mike Cahill) [2014, США, фантастика, драма, BDRip 1080p] MVO + Sub Rus, Ukr, Eng + Original Eng

Ответить на тему
 
Автор Сообщение

user ®

Стаж: 7 лет 7 месяцев

Сообщений: 20008

Пост Пост: #1 от 24-Дек-2014 01:15

[Цитировать]

Я - начало / I Origins Страна: США
Студия: Verisimilitude, WeWork Studios
Жанр: фантастика, драма
Год выпуска: 2014
Продолжительность: 01:47:35
Перевод: Профессиональный (многоголосый закадровый) iTunes
Cубтитры: русские, украинские, английские
Оригинальная аудиодорожка: английский
Режиссер: Майк Кэхилл / Mike Cahill
В ролях: Майкл Питт, Стивен Ян, Астрид Берже-Фрисби, Брит Марлинг, Дориен Маклоги, Чарльз В. Грэй, Джон Шиумо, Фараша Бэйлок, Ако, Кристофер Сантамария
Описание: Ян Грей, специалист по молекулярной биологии в области эволюции глаз, как-то раз, оставив свою лабораторию, отправляется на вечеринку. И знакомится там с таинственной незнакомкой, которая уходит от него в ночь. Но главный герой настойчив – имея в памяти лишь картину ее прекрасных глаз, он находит ее, и они влюбляются друг в друга. Их принципиально разные взгляды на жизнь лишь еще сильнее связывают их, и влюбленные клянутся оставаться вместе всегда. Годы спустя Ян и его коллега – ученая Карен делают ошеломляющее открытие, способное обернуться серьезными последствиями. Рискуя делом всей своей жизни и своей семьей, герой фантастической драмы «Я – начало» отправляется в путешествие по миру, чтобы отыскать правду о том, что он открыл, и узнать, к чему это открытие может привести...

Тип релиза: BDRip 1080p [EbP]
Контейнер: MKV
Видео: AVC, 1920x800, 13800 kbps, 23.976 fps
Аудио 1: Russian: 48 kHz, AC3, 3/2 (L,C,R,l,r) + LFE ch, ~384.00 kbps avg |iTunes|
Аудио 2: English: 48 kHz, DTS, 3/2 (L,C,R,l,r) + LFE ch, ~1536.00 kbps avg |Original|
Чаптеры:есть

x264 log
x264 [info]: frame I:892 Avg QP:16.48 size:177792
x264 [info]: frame P:27916 Avg QP:18.39 size: 91347
x264 [info]: frame B:125951 Avg QP:18.77 size: 68890
x264 [info]: consecutive B-frames: 0.9% 1.2% 6.4% 4.6% 11.3% 56.7% 5.9% 1.0% 3.1% 4.6% 2.9% 1.4%
MediaInfo
General
Unique ID : 233907911880387911642902388042502671661 (0xAFF90671AB4AE466A81612016A168D2D)
Complete name : D:\I.Origins.2014.1080p.BluRay.DTS.x264-Talian-.mkv
Format : Matroska
Format version : Version 2
File size : 12.0 GiB
Duration : 1h 47mn
Overall bit rate : 16.0 Mbps
Movie name : I Origins-Talian-
Encoded date : UTC 2014-12-22 09:02:30
Writing application : mkvmerge v5.7.0 ('The Whirlwind') built on Jul 8 2012 20:08:51
Writing library : libebml v1.2.3 + libmatroska v1.3.0
Video
ID : 1
Format : AVC
Format/Info : Advanced Video Codec
Format profile : High@L4.1
Format settings, CABAC : Yes
Format settings, ReFrames : 5 frames
Codec ID : V_MPEG4/ISO/AVC
Duration : 1h 47mn
Bit rate : 13.8 Mbps
Width : 1 920 pixels
Height : 800 pixels
Display aspect ratio : 2.40:1
Frame rate : 23.976 fps
Color space : YUV
Chroma subsampling : 4:2:0
Bit depth : 8 bits
Scan type : Progressive
Bits/(Pixel*Frame) : 0.374
Stream size : 10.4 GiB (86%)
Title : EbP
Writing library : x264 core 142 r2491kMod 24e4fed
Encoding settings : cabac=1 / ref=5 / deblock=1:-3:-3 / analyse=0x3:0x133 / me=umh / subme=10 / psy=1 / fade_compensate=0.00 / psy_rd=1.05:0.00 / mixed_ref=1 / me_range=16 / chroma_me=1 / trellis=2 / 8x8dct=1 / cqm=0 / deadzone=21,11 / fast_pskip=0 / chroma_qp_offset=-2 / threads=12 / lookahead_threads=3 / sliced_threads=0 / nr=0 / decimate=0 / interlaced=0 / bluray_compat=0 / constrained_intra=0 / fgo=0 / bframes=11 / b_pyramid=2 / b_adapt=2 / b_bias=0 / direct=3 / weightb=1 / open_gop=0 / weightp=2 / keyint=250 / keyint_min=23 / scenecut=40 / intra_refresh=0 / rc=crf / mbtree=0 / crf=18.5000 / qcomp=0.60 / qpmin=0 / qpmax=69 / qpstep=4 / ip_ratio=1.30 / pb_ratio=1.10 / aq=3:0.65 / zones=147105,154758,crf=25
Language : English
Default : Yes
Forced : No
Audio #1
ID : 2
Format : AC-3
Format/Info : Audio Coding 3
Mode extension : CM (complete main)
Format settings, Endianness : Big
Codec ID : A_AC3
Duration : 1h 47mn
Bit rate mode : Constant
Bit rate : 384 Kbps
Channel(s) : 6 channels
Channel positions : Front: L C R, Side: L R, LFE
Sampling rate : 48.0 KHz
Bit depth : 16 bits
Compression mode : Lossy
Stream size : 296 MiB (2%)
Title : MVO-iTunes
Language : Russian
Default : Yes
Forced : No
Audio #2
ID : 3
Format : DTS
Format/Info : Digital Theater Systems
Format profile : ES
Codec ID : A_DTS
Duration : 1h 47mn
Bit rate mode : Constant
Bit rate : 1 510 Kbps
Channel(s) : 6 channels
Channel positions : Front: L C R, Side: L R, LFE
Sampling rate : 48.0 KHz
Bit depth : 24 bits
Compression mode : Lossy
Stream size : 1.14 GiB (9%)
Title : Original
Language : English
Default : No
Forced : No
Text #1
ID : 4
Format : UTF-8
Codec ID : S_TEXT/UTF8
Codec ID/Info : UTF-8 Plain Text
Title : Sub
Language : Russian
Default : No
Forced : No
Text #2
ID : 5
Format : UTF-8
Codec ID : S_TEXT/UTF8
Codec ID/Info : UTF-8 Plain Text
Title : Sub
Language : Ukrainian
Default : No
Forced : No
Text #3
ID : 6
Format : UTF-8
Codec ID : S_TEXT/UTF8
Codec ID/Info : UTF-8 Plain Text
Title : Sub
Language : English
Default : No
Forced : No
Menu
00:00:00.000 : en:00:00:00.000
00:02:40.619 : en:00:02:40.619
00:05:32.707 : en:00:05:32.707
00:07:23.693 : en:00:07:23.693
00:12:35.505 : en:00:12:35.505
00:13:52.206 : en:00:13:52.206
00:16:43.252 : en:00:16:43.252
00:19:00.973 : en:00:19:00.973
00:21:32.666 : en:00:21:32.666
00:25:36.535 : en:00:25:36.535
00:29:38.026 : en:00:29:38.026
00:32:51.219 : en:00:32:51.219
00:36:25.225 : en:00:36:25.225
00:42:30.131 : en:00:42:30.131
00:46:37.920 : en:00:46:37.920
00:50:51.048 : en:00:50:51.048
00:54:16.295 : en:00:54:16.295
00:58:26.336 : en:00:58:26.336
01:02:26.368 : en:01:02:26.368
01:05:25.755 : en:01:05:25.755
01:07:49.357 : en:01:07:49.357
01:12:53.327 : en:01:12:53.327
01:16:32.087 : en:01:16:32.087
01:18:40.007 : en:01:18:40.007
01:21:18.916 : en:01:21:18.916
01:24:00.244 : en:01:24:00.244
01:26:06.703 : en:01:26:06.703
01:27:52.350 : en:01:27:52.350
01:32:45.518 : en:01:32:45.518
01:37:39.604 : en:01:37:39.604
01:39:03.396 : en:01:39:03.396
01:42:23.346 : en:01:42:23.346
Скриншоты
Source vs Encode


Скачать

Скачать торрент!

Как скачивать? · Что такое торрент? · Рейтинг и ограничения

Сайт не распространяет и не хранит электронные версии произведений, а лишь предоставляет доступ к создаваемому пользователями каталогу ссылок на торрент-файлы, которые содержат только списки хеш-сумм

[Профиль] [ЛС]
Показать сообщения:    
Ответить на тему

Текущее время: Сегодня 19:40

Часовой пояс: GMT + 4



Вы не можете начинать темы
Вы не можете отвечать на сообщения
Вы не можете редактировать свои сообщения
Вы не можете удалять свои сообщения
Вы не можете голосовать в опросах
Вы не можете прикреплять файлы к сообщениям
Вы не можете скачивать файлы