Наина / Naina (Канак Мишра / Kanak Mishra) [1973, Индия, Мелодрама, DVDRip-AVC] VO (Nastia) + Sub Rus (на песни)

Ответить на тему
 
Автор Сообщение

user ®

Стаж: 12 лет

Сообщений: 15092

Пост Пост: #1 от 23-Дек-2014 22:05

[Цитировать]

Наина / Naina
Страна: Индия
Жанр: Мелодрама
Год выпуска: 1973
Продолжительность: 02:14:38
Перевод: Одноголосый закадровый Nastia
Cубтитры: русские (только на тексты песен)
Режиссер: Канак Мишра / Kanak Mishra
В ролях: Шаши Капур, Моушуми Чаттерджи, Раджшри Шантарам, Рехман, Падма Кханна, Давид Абрахам, Санджана
Описание: Пережив любовную трагедию, талантливый поэт Рави Верма (Шаши Капур) разочаровался в женщинах. Его жизнь бесцельна, он пьянствует, посещает куртизанок. И только самоотверженная любовь его жены - красавицы Джиоти (Моушуми Чаттерджи) помогает ему забыть о прошлом…
Доп. информация: Релиз
Озвучка: Nastia (Спасибо!)
Материалы larisa_k (Спасибо!)
Перевод субтитров, сведение аудио: керелис (Спасибо!)
Сэмпл: http://multi-up.com/1022217
Качество видео: DVDRip-AVC
Формат видео: MKV
Видео: 720x544 (1.324:1), 25.510 fps, AVC, ~ 1823 Kbps, 0.182 bits/pixel
Аудио: Русский, 48 KHz, АС3, 2 ch, 192 Kbps
MediaInfo
Complete name : F:\Naina.1973.DVDRip.x264.BWTorrents.mkv
Format : Matroska
File size : 1.93 GiB
Duration : 2h 14mn
Overall bit rate : 2 056 Kbps
Encoded date : UTC 2014-12-22 09:07:25
Writing application : mkvmerge v6.0.0 ('Coming Up For Air') built on Jan 20 2013 09:52:00
Writing library : libebml v1.3.0 + libmatroska v1.4.0
Video
ID : 1
Format : AVC
Format/Info : Advanced Video Codec
Format profile : High@L3.0
Format settings, CABAC : Yes
Format settings, ReFrames : 4 frames
Muxing mode : Container profile=Unknown@3.0
Codec ID : V_MPEG4/ISO/AVC
Duration : 2h 12mn
Bit rate : 1 823 Kbps
Nominal bit rate : 1 862 Kbps
Width : 720 pixels
Height : 544 pixels
Display aspect ratio : 4/3
Frame rate mode : Variable
Frame rate : 25.510 fps
Resolution : 24 bits
Colorimetry : 4:2:0
Scan type : Progressive
Bits/(Pixel*Frame) : 0.182
Stream size : 1.68 GiB (87%)
Writing library : x264 core 112
Encoding settings : cabac=1 / ref=4 / deblock=1:0:0 / analyse=0x3:0x113 / me=umh / subme=7 / psy=1 / psy_rd=1.00:0.00 / mixed_ref=1 / me_range=16 / chroma_me=1 / trellis=1 / 8x8dct=1 / cqm=0 / deadzone=21,11 / fast_pskip=1 / chroma_qp_offset=-2 / threads=3 / sliced_threads=0 / nr=0 / decimate=1 / interlaced=0 / constrained_intra=0 / bframes=3 / b_pyramid=2 / b_adapt=2 / b_bias=0 / direct=1 / weightb=1 / open_gop=0 / weightp=2 / keyint=300 / keyint_min=25 / scenecut=40 / intra_refresh=0 / rc_lookahead=50 / rc=2pass / mbtree=1 / bitrate=1862 / ratetol=1.0 / qcomp=0.60 / qpmin=3 / qpmax=51 / qpstep=4 / cplxblur=20.0 / qblur=0.5 / ip_ratio=1.40 / aq=1:1.00
Audio
ID : 2
Format : AC-3
Format/Info : Audio Coding 3
Codec ID : A_AC3
Duration : 2h 14mn
Bit rate mode : Constant
Bit rate : 192 Kbps
Channel(s) : 2 channels
Channel positions : L R
Sampling rate : 48.0 KHz
Stream size : 185 MiB (9%)
Language : Russian
Text
ID : 3
Format : UTF-8
Codec ID : S_TEXT/UTF8
Codec ID/Info : UTF-8 Plain Text
Title : ~ на песни ~
Language : Russian
Menu
00:00:00.000 : en:Chapter 1
00:02:20.940 : en:Chapter 2
00:08:48.544 : en:Chapter 3
00:14:21.660 : en:Chapter 4
00:18:21.400 : en:Chapter 5
00:23:27.280 : en:Chapter 6
00:30:38.653 : en:Chapter 7
00:35:40.296 : en:Chapter 8
00:41:08.098 : en:Chapter 9
00:47:42.593 : en:Chapter 10
00:55:20.116 : en:Chapter 11
00:57:19.194 : en:Chapter 12
01:03:54.230 : en:Chapter 13
01:08:26.502 : en:Chapter 14
01:13:16.425 : en:Chapter 15
01:22:01.716 : en:Chapter 16
01:27:01.749 : en:Chapter 17
01:30:55.842 : en:Chapter 18
01:35:57.468 : en:Chapter 19
01:41:27.915 : en:Chapter 20
01:49:23.064 : en:Chapter 21
01:54:49.791 : en:Chapter 22
02:01:28.589 : en:Chapter 23
Скриншоты
Скачать

Скачать торрент! Наина / Naina (Канак Мишра / Kanak Mishra) [1973, Индия, Мелодрама, DVDRip-AVC] VO (Nastia) + Sub Rus (на песни)

Как скачивать? · Что такое торрент? · Рейтинг и ограничения

Сайт не распространяет и не хранит электронные версии произведений, а лишь предоставляет доступ к создаваемому пользователями каталогу ссылок на торрент-файлы, которые содержат только списки хеш-сумм

[Профиль] [ЛС]
Показать сообщения:    
Ответить на тему

Текущее время: Сегодня 11:45

Часовой пояс: GMT + 4



Вы не можете начинать темы
Вы не можете отвечать на сообщения
Вы не можете редактировать свои сообщения
Вы не можете удалять свои сообщения
Вы не можете голосовать в опросах
Вы не можете прикреплять файлы к сообщениям
Вы не можете скачивать файлы