Пристегните ремни / Allacciate le cinture (Ферзан Озпетек / Ferzan Ozpetek) [2014, Италия, Мелодрама, BDRip 720p] Dub + Sub Ita, Eng + Original Ita

Ответить на тему
 
Автор Сообщение

user ®

Стаж: 7 лет 7 месяцев

Сообщений: 20008

Пост Пост: #1 от 23-Дек-2014 22:05

[Цитировать]

Пристегните ремни / Allacciate le cinture
Страна: Италия
Студия: R&C Produzioni, Faros Film, Rai Cinema
Жанр: Мелодрама
Год выпуска: 2014
Продолжительность: 01:50:53
Перевод: Профессиональный (дублированный)
Cубтитры: Ita, Eng
Оригинальная аудиодорожка: итальянский
Режиссер: Ферзан Озпетек / Ferzan Ozpetek
В ролях: Касия Смутняк, Франческо Арка, Филиппо Шиккьятано, Каролина Крешентини, Паола Миначчони, Елена София Риччи, Франческо Шианна, Карла Синьорис, Луиза Раньери, Джулия Микелини
Описание: Елена и Антонио точно не созданы друг для друга. Она — интеллигентная девушка из хорошей семьи, он — чувственное животное, хамоватый неграмотный механик. Они абсолютно разные — по характеру, жизненным приоритетам, отношению к миру. И, тем не менее, чувствуют непреодолимое взаимное притяжение, хотя всячески пытаются с ним справиться. Не только потому, что между ними нет ничего общего, но и по более важным причинам: у Елены роман с архитектором Джорджио, а Антонио встречается с ее лучшей подругой Сильвией. Однако страсть сильнее — и молодые люди женятся. Спустя несколько лет Елена понимает, что, возможно, совершила трагическую ошибку…

Тип релиза: BDRip 720p
Контейнер: MKV
Видео: MPEG-4 AVC, 6000 Кбит/с, 1280x548, 23,976 fps
Аудио: Rus, AC3, 448 kb/s (6 ch), 48 kHz
Аудио 2: Ita, DTS, 1510 kb/s (6 ch), 48 kHz
Формат субтитров: softsub (SRT)
MediaInfo
Format : Matroska
Format version : Version 4 / Version 2
File size : 6.17 GiB
Duration : 1h 50mn
Overall bit rate : 7 959 Kbps
Movie name : Tonik
Encoded date : UTC 2014-12-23 14:23:00
Writing application : mkvmerge v7.1.0 ('Good Love') 64bit built on Jul 27 2014 13:06:55
Writing library : libebml v1.3.0 + libmatroska v1.4.1
_STATISTICS_WRITING_APP : mkvmerge v7.1.0 ('Good Love') 64bit built on Jul 27 2014 13:06:55
_STATISTICS_WRITING_DATE_UTC : 2014-12-23 14:23:00
_STATISTICS_TAGS : BPS DURATION NUMBER_OF_FRAMES NUMBER_OF_BYTES
DURATION : 01:50:53.600000000
NUMBER_OF_FRAMES : 207925
NUMBER_OF_BYTES : 372601600
Video
ID : 1
Format : AVC
Format/Info : Advanced Video Codec
Format profile : High@L4.1
Format settings, CABAC : Yes
Format settings, ReFrames : 11 frames
Codec ID : V_MPEG4/ISO/AVC
Duration : 1h 50mn
Bit rate : 6 000 Kbps
Width : 1 280 pixels
Height : 548 pixels
Display aspect ratio : 2.35:1
Frame rate mode : Constant
Frame rate : 23.976 fps
Color space : YUV
Chroma subsampling : 4:2:0
Bit depth : 8 bits
Scan type : Progressive
Bits/(Pixel*Frame) : 0.357
Stream size : 4.53 GiB (73%)
Writing library : x264 core 142 r2453 ea0ca51
Encoding settings : cabac=1 / ref=11 / deblock=1:-3:-3 / analyse=0x3:0x133 / me=umh / subme=11 / psy=1 / psy_rd=1.05:0.00 / mixed_ref=1 / me_range=24 / chroma_me=1 / trellis=2 / 8x8dct=1 / cqm=0 / deadzone=21,11 / fast_pskip=0 / chroma_qp_offset=-2 / threads=3 / lookahead_threads=1 / sliced_threads=0 / nr=0 / decimate=0 / interlaced=0 / bluray_compat=0 / constrained_intra=0 / bframes=11 / b_pyramid=2 / b_adapt=2 / b_bias=0 / direct=3 / weightb=1 / open_gop=0 / weightp=2 / keyint=250 / keyint_min=23 / scenecut=40 / intra_refresh=0 / rc=2pass / mbtree=0 / bitrate=6000 / ratetol=1.0 / qcomp=0.60 / qpmin=0 / qpmax=69 / qpstep=4 / cplxblur=20.0 / qblur=0.5 / ip_ratio=1.40 / pb_ratio=1.30 / aq=1:0.60
Language : Italian
Default : Yes
Forced : No
_STATISTICS_WRITING_APP : mkvmerge v7.1.0 ('Good Love') 64bit built on Jul 27 2014 13:06:55
_STATISTICS_WRITING_DATE_UTC : 2014-12-23 14:23:00
_STATISTICS_TAGS : BPS DURATION NUMBER_OF_FRAMES NUMBER_OF_BYTES
DURATION : 01:50:53.689000000
NUMBER_OF_FRAMES : 159529
NUMBER_OF_BYTES : 4989993444
Audio #1
ID : 2
Format : AC-3
Format/Info : Audio Coding 3
Mode extension : CM (complete main)
Format settings, Endianness : Big
Codec ID : A_AC3
Duration : 1h 50mn
Bit rate mode : Constant
Bit rate : 448 Kbps
Channel(s) : 6 channels
Channel positions : Front: L C R, Side: L R, LFE
Sampling rate : 48.0 KHz
Bit depth : 16 bits
Compression mode : Lossy
Stream size : 355 MiB (6%)
Language : Russian
Default : Yes
Forced : No
Audio #2
ID : 3
Format : DTS
Format/Info : Digital Theater Systems
Mode : 16
Format settings, Endianness : Big
Codec ID : A_DTS
Duration : 1h 50mn
Bit rate mode : Constant
Bit rate : 1 509 Kbps
Channel(s) : 6 channels
Channel positions : Front: L C R, Side: L R, LFE
Sampling rate : 48.0 KHz
Bit depth : 16 bits
Compression mode : Lossy
Stream size : 1.17 GiB (19%)
Language : Italian
Default : No
Forced : No
Text #1
ID : 4
Format : UTF-8
Codec ID : S_TEXT/UTF8
Codec ID/Info : UTF-8 Plain Text
Language : English
Default : No
Forced : No
Text #2
ID : 5
Format : UTF-8
Codec ID : S_TEXT/UTF8
Codec ID/Info : UTF-8 Plain Text
Language : Italian
Default : No
Forced : No
Скриншоты 23.12.14 - Замена русской дороги.
Скачать

Скачать торрент!

Как скачивать? · Что такое торрент? · Рейтинг и ограничения

Сайт не распространяет и не хранит электронные версии произведений, а лишь предоставляет доступ к создаваемому пользователями каталогу ссылок на торрент-файлы, которые содержат только списки хеш-сумм

[Профиль] [ЛС]
Показать сообщения:    
Ответить на тему

Текущее время: Сегодня 23:39

Часовой пояс: GMT + 4



Вы не можете начинать темы
Вы не можете отвечать на сообщения
Вы не можете редактировать свои сообщения
Вы не можете удалять свои сообщения
Вы не можете голосовать в опросах
Вы не можете прикреплять файлы к сообщениям
Вы не можете скачивать файлы