Пингвины Мадагаскара / The Penguins of Madagascar (Эрик Дарнелл / Eric Darnell , Саймон Дж. Смит / Simon J. Smith ) [2014, мультфильм, комедия, приключения, семейный, CamRip] Dub

Ответить на тему
 
Автор Сообщение

user ®

Стаж: 12 лет

Сообщений: 15145

Пост Пост: #1 от 23-Дек-2014 04:35

[Цитировать]

Пингвины из Мадагаскара
The Penguins of Madagascar
-
Год выпуска фильма: 2014
Страна: США
Жанр: мультфильм, комедия, приключения, семейный
Продолжительность: 01:20:49
Перевод: Профессиональный (полное дублирование)
Русские субтитры: нет-Режиссер: Эрик Дарнелл / Eric Darnell , Саймон Дж. Смит / Simon J. Smith-В ролях: Бенедикт Камбербэтч, Джон Малкович, Петер Стормаре, Аннет Махендру, Кен Жонг, Энди Рихтер, Том МакГрат, Крис Миллер, Кристофер Найтс-Описание: Сверхсекретные операции, железная дисциплина и выдержка, а главное, феноменальная находчивость — вот критерии успешной миссии, даже если она кажется невыполнимой.-Качество: CamRip
Формат видео: AVI
Видео: 720x400 (1.80:1), 25 fps, XviD build 50 ~1954 kbps avg, 0.27 bit/pixel
Аудио: 44.100 kHz, MPEG Layer 3, 2 ch, ~192.00 kbps avg-Семпл: http://multi-up.com/1022103-

MediaInfo
General
Complete name : The.Penguins.of.Madagascar.2014.D.CAMRip.avi
Format : AVI
Format/Info : Audio Video Interleave
Format profile : OpenDML
File size : 1.22 GiB
Duration : 1h 20mn
Overall bit rate : 2 154 Kbps
Video
ID : 0
Format : MPEG-4 Visual
Format profile : Simple@L3
Format settings, BVOP : No
Format settings, QPel : No
Format settings, GMC : No warppoints
Format settings, Matrix : Default (H.263)
Codec ID : XVID
Codec ID/Hint : XviD
Duration : 1h 20mn
Bit rate : 1 945 Kbps
Width : 720 pixels
Height : 400 pixels
Display aspect ratio : 16:9
Frame rate : 25.000 fps
Color space : YUV
Chroma subsampling : 4:2:0
Bit depth : 8 bits
Scan type : Progressive
Compression mode : Lossy
Bits/(Pixel*Frame) : 0.270
Stream size : 1.10 GiB (90%)
Writing library : XviD 1.2.1 (UTC 2008-12-04)
Audio
ID : 1
Format : MPEG Audio
Format version : Version 1
Format profile : Layer 3
Mode : Joint stereo
Codec ID : 55
Codec ID/Hint : MP3
Duration : 1h 20mn
Bit rate mode : Constant
Bit rate : 192 Kbps
Channel(s) : 2 channels
Sampling rate : 44.1 KHz
Compression mode : Lossy
Stream size : 111 MiB (9%)
Alignment : Aligned on interleaves
Interleave, duration : 26 ms (0.65 video frame)
Writing library : LAME3.98.2
Скриншоты -
Скачать

Скачать торрент! Пингвины Мадагаскара / The Penguins of Madagascar (Эрик Дарнелл / Eric Darnell , Саймон Дж. Смит / Simon J. Smith ) [2014, мультфильм, комедия, приключения, семейный, CamRip] Dub

Как скачивать? · Что такое торрент? · Рейтинг и ограничения

Сайт не распространяет и не хранит электронные версии произведений, а лишь предоставляет доступ к создаваемому пользователями каталогу ссылок на торрент-файлы, которые содержат только списки хеш-сумм

[Профиль] [ЛС]
Показать сообщения:    
Ответить на тему

Текущее время: Сегодня 20:59

Часовой пояс: GMT + 4



Вы не можете начинать темы
Вы не можете отвечать на сообщения
Вы не можете редактировать свои сообщения
Вы не можете удалять свои сообщения
Вы не можете голосовать в опросах
Вы не можете прикреплять файлы к сообщениям
Вы не можете скачивать файлы