Щелкунчик (Борис Степанцев) [1973, мультфильм, DVB-AVC]

Ответить на тему
 
Автор Сообщение

user ®

Стаж: 7 лет 7 месяцев

Сообщений: 20008

Пост Пост: #1 от 23-Дек-2014 04:35

[Цитировать]

Щелкунчик
Жанр: мультфильм
Год выпуска: 1973
Продолжительность: 00:25:31
Субтитры: русские (Teletext)
Режиссёр: Борис Степанцев
Описание: мультипликационный музыкальный фильм-феерия по мотивам рождественской сказки Эрнста Теодора Амадея Гофмана «Щелкунчик и мышиный король» и одноименного балета Петра Ильича Чайковского о том, как в рождественскую ночь девочка Маша спасает заколдованного принца от крысиного короля ...
Доп. информация: по мотивам сказки Э. Т. А. Гофмана «Щелкунчик и мышиный король»

Релиз группы:
Трансляция спутникового канала:

Качество видео: DVB
Формат видео: MPEG-TS
Видео: MPEG4 Video (H264), 720x576@785x576 (4:3), анаморф, 25 fps, 2700 kbps
Аудио: MPEG Audio, 2 сh, 48 kHz, 192 kbps
Сравнение
[url=http://***/forum/viewtopic.php?t=4880987]http://***/forum/viewtopic.php?t=4880987[/url]
http://screenshotcomparison.com/comparison/105433
[url=http://***/forum/viewtopic.php?t=3576280]http://***/forum/viewtopic.php?t=3576280[/url]
http://screenshotcomparison.com/comparison/105436
MediaInfo
General
ID : 1 (0x1)
Complete name : D:\Щелкунчик. (1973)_DVB by SLuMeP.ts
Format : MPEG-TS
File size : 551 MiB
Duration : 25mn 31s
Overall bit rate mode : Variable
Overall bit rate : 3 016 Kbps
Video
ID : 1081 (0x439)
Menu ID : 1 (0x1)
Format : AVC
Format/Info : Advanced Video Codec
Format profile : Main@L3.0
Format settings, CABAC : Yes
Format settings, ReFrames : 3 frames
Codec ID : 27
Duration : 25mn 31s
Bit rate : 2 673 Kbps
Width : 720 pixels
Height : 576 pixels
Display aspect ratio : 4:3
Frame rate : 25.000 fps
Standard : Component
Color space : YUV
Chroma subsampling : 4:2:0
Bit depth : 8 bits
Scan type : Interlaced
Bits/(Pixel*Frame) : 0.258
Stream size : 488 MiB (89%)
Audio
ID : 1082 (0x43A)
Menu ID : 1 (0x1)
Format : MPEG Audio
Format version : Version 1
Format profile : Layer 2
Codec ID : 3
Duration : 25mn 31s
Bit rate mode : Constant
Bit rate : 192 Kbps
Channel(s) : 2 channels
Sampling rate : 48.0 KHz
Compression mode : Lossy
Stream size : 35.1 MiB (6%)
Language : English
Text
ID : 1084 (0x43C)-100
Menu ID : 1 (0x1)
Format : Teletext
Language : Russian
Menu
ID : 256 (0x100)
Menu ID : 1 (0x1)
Duration : 25mn 31s
List : 1081 (0x439) (AVC) / 1082 (0x43A) (MPEG Audio, English) / 1084 (0x43C) ()
Language : / English
Скриншоты
Скачать

Скачать торрент!

Как скачивать? · Что такое торрент? · Рейтинг и ограничения

Сайт не распространяет и не хранит электронные версии произведений, а лишь предоставляет доступ к создаваемому пользователями каталогу ссылок на торрент-файлы, которые содержат только списки хеш-сумм

[Профиль] [ЛС]
Показать сообщения:    
Ответить на тему

Текущее время: Сегодня 12:27

Часовой пояс: GMT + 4



Вы не можете начинать темы
Вы не можете отвечать на сообщения
Вы не можете редактировать свои сообщения
Вы не можете удалять свои сообщения
Вы не можете голосовать в опросах
Вы не можете прикреплять файлы к сообщениям
Вы не можете скачивать файлы