Мастер / The Master / Long xing tian xia / Lung hang tin haa (Тцуй Харк / Tsui Hark) [1989, Гонконг, США, боевик, DVDRip] 2x AVO (Санаев, Визгунов)

Ответить на тему
 
Автор Сообщение

user ®

Стаж: 13 лет

Сообщений: 15071

Пост Пост: #1 от 23-Дек-2014 04:35

[Цитировать]

Мастер / The Master / Long xing tian xia / Lung hang tin haa Страна: Гонконг, США
Жанр: боевик
Год выпуска: 1989
Продолжительность: 01:29:09
Перевод 1: Авторский (одноголосый закадровый) Павел Санаев
Перевод 2: Авторский (одноголосый закадровый) Сергей Визгунов
Cубтитры: нет
Режиссер: Тцуй Харк / Tsui Hark
В ролях: Джет Ли, Ва Юэнь, Кристал Квок, Джерри Тримбл, Майкл Бурк
Описание: Дядя Так прославлен своим искусством традиционной китайской медицины. Как эксперт боевых искусств он также обучает молодёжь мастерству самозащиты. Один из его учеников, Джонни, мечтает монополизировать преподавание кунг-фу в США. С этой целью он пытается убить Дядю Така.
Джет, лучший ученик Дяди Така из Китая, приезжает в Лос-Анджелес чтобы разыскать своего учителя. Джонни и его люди не оставляют китайцев в покое, и тем приходится драться не на жизнь, а на смерть.

Качество видео: [url=http://***/forum/viewtopic.php?t=1193905]DVDRip[/url] спасибо Shadow04
Формат видео: AVI
Видео кодек: XviD
Аудио кодек: AC3
Видео: 704x384 (1.83:1), 25 fps, XviD build 73 ~1930 kbps avg, 0.28 bit/pixel
Аудио 1: 48 kHz, AC3 Dolby Digital, 2/0 (L,R) ch, ~192 kbps Санаев
Аудио 2: 48 kHz, AC3 Dolby Digital, 2/0 (L,R) ch, ~192 kbps Визгунов

Спасибо
За Санаева alenavova, за Визгунова Shadow04
Сравнение
http://screenshotcomparison.com/comparison/105386/picture:2 [url=http://***/forum/viewtopic.php?t=4891888]с этим[/url]
http://screenshotcomparison.com/comparison/105387/picture:2 [url=http://***/forum/viewtopic.php?t=218553]с этим[/url] и [url=http://***/forum/viewtopic.php?t=2955082]этим[/url]
MediaInfo
Полное имя : Мастер 1989.avi
Формат : AVI
Формат/Информация : Audio Video Interleave
Размер файла : 1,45 Гбайт
Продолжительность : 1 ч. 29 м.
Общий поток : 2330 Кбит/сек
Программа кодирования : VirtualDubMod 1.5.10.2 (build 2540/release)
Видео
Идентификатор : 0
Формат : MPEG-4 Visual
Профиль формата : Advanced Simple@L5
Параметр BVOP формата : 2
Параметр QPel формата : Нет
Параметр GMC формата : Без точки перехода
Параметр матрицы формата : Выборочная
Идентификатор кодека : XVID
Идентификатор кодека/Подсказка : XviD
Продолжительность : 1 ч. 29 м.
Битрейт : 1932 Кбит/сек
Ширина : 704 пикселя
Высота : 384 пикселя
Соотношение сторон : 1,85:1
Частота кадров : 25,000 кадров/сек
Цветовое пространство : YUV
Субдискретизация насыщенности : 4:2:0
Битовая глубина : 8 бит
Тип развёртки : Прогрессивная
Метод сжатия : С потерями
Бит/(Пиксели*Кадры) : 0.286
Размер потока : 1,20 Гбайт (83%)
Библиотека кодирования : XviD 73
Аудио #1
Идентификатор : 1
Формат : AC-3
Формат/Информация : Audio Coding 3
Расширение режима : CM (complete main)
Параметр Endianness формата : Big
Идентификатор кодека : 2000
Продолжительность : 1 ч. 29 м.
Вид битрейта : Постоянный
Битрейт : 192 Кбит/сек
Каналы : 2 канала
Расположение каналов : Front: L R
Частота : 48,0 КГц
Битовая глубина : 16 бит
Метод сжатия : С потерями
Размер потока : 122 Мбайт (8%)
Выравнивание : Разделение по промежуткам
Продолжительность промежутка : 40 мс. (1,00 видеокадр)
Время предзагрузки промежутка : 500 мс.
Заголовок : Sanaev
Аудио #2
Идентификатор : 2
Формат : AC-3
Формат/Информация : Audio Coding 3
Расширение режима : CM (complete main)
Параметр Endianness формата : Big
Идентификатор кодека : 2000
Продолжительность : 1 ч. 29 м.
Вид битрейта : Постоянный
Битрейт : 192 Кбит/сек
Каналы : 2 канала
Расположение каналов : Front: L R
Частота : 48,0 КГц
Битовая глубина : 16 бит
Метод сжатия : С потерями
Размер потока : 122 Мбайт (8%)
Выравнивание : Разделение по промежуткам
Продолжительность промежутка : 40 мс. (1,00 видеокадр)
Время предзагрузки промежутка : 500 мс.
Заголовок : Vizgunov
Скриншоты
Скачать

Скачать торрент! Мастер / The Master / Long xing tian xia / Lung hang tin haa (Тцуй Харк / Tsui Hark) [1989, Гонконг, США, боевик, DVDRip] 2x AVO (Санаев, Визгунов)

Как скачивать? · Что такое торрент? · Рейтинг и ограничения

Сайт не распространяет и не хранит электронные версии произведений, а лишь предоставляет доступ к создаваемому пользователями каталогу ссылок на торрент-файлы, которые содержат только списки хеш-сумм

[Профиль] [ЛС]
Показать сообщения:    
Ответить на тему

Текущее время: Сегодня 21:09

Часовой пояс: GMT + 4



Вы не можете начинать темы
Вы не можете отвечать на сообщения
Вы не можете редактировать свои сообщения
Вы не можете удалять свои сообщения
Вы не можете голосовать в опросах
Вы не можете прикреплять файлы к сообщениям
Вы не можете скачивать файлы