Прямо в сердце / Kill Dil (Шаад Али / Shaad Ali) [2014, Индия, Боевик, триллер, драма, криминал, HDRip] Sub Rus + Original

Ответить на тему
 
Автор Сообщение

user ®

Стаж: 12 лет

Сообщений: 15092

Пост Пост: #1 от 23-Дек-2014 04:35

[Цитировать]

Прямо в сердце / Kill Dil*Сколько волка не корми - он всё равно в лес смотрит* -Страна: Индия
Жанр: Боевик, триллер, драма, криминал
Год выпуска: 2014
Продолжительность: 01:57:54--Язык: Хинди
Перевод: Субтитры
Cубтитры: Русские
Перевод и редакция: Honey&Haseena--Режиссер: Шаад Али / Shaad Ali-В ролях: Ранвир Сингх, Али Зафар, Паринити Чопра, Говинда, Шаад Али, Сукхвиндер Сингх, Роки Верма--Описание: Дев и Туту не знают своего происхождения. Их вырастил местный главарь мафии Бхайяджи. Он сделал из них орудие убийства. Выполняя очередное задание, Дев встречает красавицу Дишу и без памяти влюбляется в неё. Он решает бросить свою жалкую жизнь бандита и начать жизнь честного человека. Но банда главаря мафии не желает его так легко отпускать. Они начинают преследовать парня по пятам, в результате чего вмешивается Туту…. (c) Honey-- | --Качество видео: HDRip
Формат видео: AVI-Видео: 720x304 (2.37:1), 24.000 fps, XviD build 50 ~1309 kbps avg, 0.25 bit/pixel
Аудио: 48 kHz, AC3 Dolby Digital, 3/2 (L,C,R,l,r) + LFE ch, ~448 kbps
Формат субтитров: hardsub (неотключаемые, вшитые в картинку)--Сэмпл / Sample--Pелиз от: Honey&Haseena (спасибо!)-- -
-
-Скриншот с названием:
-
Скриншоты:
-
MediaInfo
General
Complete name : C:\INDIYA\Pryamo.V.Serdce.2014.HDRip.XviD.HoneyHaseena.avi
Format : AVI
Format/Info : Audio Video Interleave
File size : 1.46 GiB
Duration : 1h 57mn
Overall bit rate : 1 767 Kbps
Writing application : VirtualDubMod 1.5.10.2 (build 2540/release)
Writing library : VirtualDubMod build 2540/release
Video
ID : 0
Format : MPEG-4 Visual
Format profile : Advanced Simple@L5
Format settings, BVOP : 2
Format settings, QPel : No
Format settings, GMC : No warppoints
Format settings, Matrix : Default (H.263)
Codec ID : XVID
Codec ID/Hint : XviD
Duration : 1h 57mn
Bit rate : 1 310 Kbps
Width : 720 pixels
Height : 304 pixels
Display aspect ratio : 2.35:1
Frame rate : 24.000 fps
Color space : YUV
Chroma subsampling : 4:2:0
Bit depth : 8 bits
Scan type : Progressive
Compression mode : Lossy
Bits/(Pixel*Frame) : 0.249
Stream size : 1.08 GiB (74%)
Writing library : XviD 1.2.1 (UTC 2008-12-04)
Audio
ID : 1
Format : AC-3
Format/Info : Audio Coding 3
Mode extension : CM (complete main)
Format settings, Endianness : Big
Codec ID : 2000
Duration : 1h 57mn
Bit rate mode : Constant
Bit rate : 448 Kbps
Channel(s) : 6 channels
Channel positions : Front: L C R, Side: L R, LFE
Sampling rate : 48.0 KHz
Bit depth : 16 bits
Compression mode : Lossy
Stream size : 378 MiB (25%)
Alignment : Split accross interleaves
Interleave, duration : 42 ms (1.00 video frame)
Interleave, preload duration : 500 ms
Скачать

Скачать торрент! Прямо в сердце / Kill Dil (Шаад Али / Shaad Ali) [2014, Индия, Боевик, триллер, драма, криминал, HDRip] Sub Rus + Original

Как скачивать? · Что такое торрент? · Рейтинг и ограничения

Сайт не распространяет и не хранит электронные версии произведений, а лишь предоставляет доступ к создаваемому пользователями каталогу ссылок на торрент-файлы, которые содержат только списки хеш-сумм

[Профиль] [ЛС]
Показать сообщения:    
Ответить на тему

Текущее время: Сегодня 06:08

Часовой пояс: GMT + 4



Вы не можете начинать темы
Вы не можете отвечать на сообщения
Вы не можете редактировать свои сообщения
Вы не можете удалять свои сообщения
Вы не можете голосовать в опросах
Вы не можете прикреплять файлы к сообщениям
Вы не можете скачивать файлы