Исчезнувшая / Gone Girl (Дэвид Финчер / David Fincher) [2014, США, триллер, драма, детектив, BDRip 720p] Dub + VO + Ukr Dub + Original Eng + Sub Rus, Ukr, Eng

Ответить на тему
 
Автор Сообщение

user ®

Стаж: 7 лет 7 месяцев

Сообщений: 20008

Пост Пост: #1 от 23-Дек-2014 04:35

[Цитировать]

Исчезнувшая
Gone Girl
- Название: Исчезнувшая
Оригинальное название: Gone Girl
Страна: США
Жанр: триллер, драма, детектив
Год выпуска: 2014
Продолжительность: 02:29:01
Перевод: Профессиональный (дублированный)
Русские субтитры: есть
Оригинальная аудиодорожка: английский-Режиссер: Дэвид Финчер / David Fincher
В ролях: Бен Аффлек, Розамунд Пайк, Кэрри Кун, Ким Диккенс, Нил Патрик Харрис, Тайлер Перри, Патрик Фьюджит, Бойд Холбрук, Мисси Пайл, Эмили Ратажковски.
Описание: Все было готово для празднования пятилетнего юбилея супружеской жизни, когда вдруг необъяснимо пропал один из виновников торжества. Остались следы борьбы в доме, кровь, которую явно пытались стереть, — и цепочка ключей в игре под названием охота за сокровищами, красивая, умная и невероятно изобретательная жена ежегодно устраивала ее для своего обожаемого мужа. И похоже, что эти ключ — размещенные ею тут и там странные записки и не менее странные безделушки — дают единственный шанс пролить свет на судьбу исчезнувшей. Вот только не придется ли охотнику в процессе поиска раскрыть миру и пару-тройку собственных малосимпатичных тайн?-Качество: BDRip 720p WiKi | Контейнер: MKV | Sample
Видео: 1280x534 (2.40:1), 23.976 fps, High Profile 4.1 ~4792 kbps
Аудио 1: Russian 48 kHz, DTS, 3/2 (L,C,R,l,r) + LFE ch, 768.00 kbps | Dub BD EUR
Аудио 2: Russian 48 kHz, DTS, 3/2 (L,C,R,l,r) + LFE ch, 1509.00 kbps | VO Матвеев
Аудио 3: Ukrainian 48 kHz, AC3, 3/2 (L,C,R,l,r) + LFE ch, 448.00 kbps | Dub BD EUR
Аудио 4: English 48 kHz, DTS, 3/2 (L,C,R,l,r) + LFE ch, 1509.00 kbps | Original
Субтитры: русские полные, украинские полные, английские полные

Инфо
Формат : Matroska
Версия формата : Version 4 / Version 2
Размер файла : 9,40 Гбайт
Продолжительность : 2 ч. 29 м.
Общий поток : 9026 Кбит/сек
Название фильма : Gone Girl 2014
Дата кодирования : UTC 2014-12-21 13:16:45
Программа кодирования : mkvmerge v6.6.0 ('The Edge Of The In Between') built on Dec 1 2013 17:55:00
Библиотека кодирования : libebml v1.3.0 + libmatroska v1.4.1
Видео
Идентификатор : 1
Формат : AVC
Формат/Информация : Advanced Video Codec
Профиль формата : High@L4.1
Параметр CABAC формата : Да
Параметр ReFrames формата : 12 кадров
Идентификатор кодека : V_MPEG4/ISO/AVC
Продолжительность : 2 ч. 29 м.
Битрейт : 4792 Кбит/сек
Ширина : 1280 пикселей
Высота : 534 пикселя
Соотношение сторон : 2,40:1
Режим частоты кадров : Постоянный
Частота кадров : 23,976 кадра/сек
Цветовое пространство : YUV
Субдискретизация насыщенности : 4:2:0
Битовая глубина : 8 бит
Тип развёртки : Прогрессивная
Бит/(Пиксели*Кадры) : 0.292
Размер потока : 4,80 Гбайт (51%)
Заголовок : BDRip 720p
Библиотека кодирования : x264 core 142 r2491 24e4fed
Настройки программы : cabac=1 / ref=12 / deblock=1:-3:-3 / analyse=0x3:0x133 / me=umh / subme=11 / psy=1 / psy_rd=1.05:0.05 / mixed_ref=1 / me_range=32 / chroma_me=1 / trellis=2 / 8x8dct=1 / cqm=0 / deadzone=21,11 / fast_pskip=0 / chroma_qp_offset=-3 / threads=12 / lookahead_threads=2 / sliced_threads=0 / nr=0 / decimate=1 / interlaced=0 / bluray_compat=0 / constrained_intra=0 / bframes=8 / b_pyramid=2 / b_adapt=2 / b_bias=0 / direct=3 / weightb=1 / open_gop=0 / weightp=2 / keyint=250 / keyint_min=23 / scenecut=40 / intra_refresh=0 / rc=2pass / mbtree=0 / bitrate=4792 / ratetol=1.0 / qcomp=0.70 / qpmin=0 / qpmax=69 / qpstep=4 / cplxblur=20.0 / qblur=0.5 / ip_ratio=1.40 / pb_ratio=1.30 / aq=1:0.80
Язык : English
Default : Да
Forced : Нет
Аудио #1
Идентификатор : 2
Формат : DTS
Формат/Информация : Digital Theater Systems
Режим : 16
Параметр Endianness формата : Big
Идентификатор кодека : A_DTS
Продолжительность : 2 ч. 29 м.
Вид битрейта : Постоянный
Битрейт : 768 Кбит/сек
Каналы : 6 каналов
Расположение каналов : Front: L C R, Side: L R, LFE
Частота : 48,0 КГц
Битовая глубина : 24 бит
Метод сжатия : С потерями
Размер потока : 819 Мбайт (9%)
Заголовок : Dub BD EUR
Язык : Russian
Default : Да
Forced : Нет
Аудио #2
Идентификатор : 3
Формат : DTS
Формат/Информация : Digital Theater Systems
Режим : 16
Параметр Endianness формата : Big
Идентификатор кодека : A_DTS
Продолжительность : 2 ч. 29 м.
Вид битрейта : Постоянный
Битрейт : 1509 Кбит/сек
Каналы : 6 каналов
Расположение каналов : Front: L C R, Side: L R, LFE
Частота : 48,0 КГц
Битовая глубина : 24 бит
Метод сжатия : С потерями
Размер потока : 1,57 Гбайт (17%)
Заголовок : AVO Матвеев
Язык : Russian
Default : Нет
Forced : Нет
Аудио #3
Идентификатор : 4
Формат : AC-3
Формат/Информация : Audio Coding 3
Расширение режима : CM (complete main)
Параметр Endianness формата : Big
Идентификатор кодека : A_AC3
Продолжительность : 2 ч. 29 м.
Вид битрейта : Постоянный
Битрейт : 448 Кбит/сек
Каналы : 6 каналов
Расположение каналов : Front: L C R, Side: L R, LFE
Частота : 48,0 КГц
Битовая глубина : 16 бит
Метод сжатия : С потерями
Размер потока : 478 Мбайт (5%)
Заголовок : Dub BD EUR
Язык : Ukrainian
Default : Нет
Forced : Нет
Аудио #4
Идентификатор : 5
Формат : DTS
Формат/Информация : Digital Theater Systems
Профиль формата : ES
Режим : 16
Параметр Endianness формата : Big
Идентификатор кодека : A_DTS
Продолжительность : 2 ч. 29 м.
Вид битрейта : Постоянный
Битрейт : 1509 Кбит/сек
Каналы : 6 каналов
Расположение каналов : Front: L C R, Side: L R, LFE
Частота : 48,0 КГц
Битовая глубина : 24 бит
Метод сжатия : С потерями
Размер потока : 1,57 Гбайт (17%)
Заголовок : Original
Язык : English
Default : Нет
Forced : Нет
Текст #1
Идентификатор : 6
Формат : UTF-8
Идентификатор кодека : S_TEXT/UTF8
Идентификатор кодека/Информация : UTF-8 Plain Text
Заголовок : Full
Язык : Russian
Default : Нет
Forced : Нет
Текст #2
Идентификатор : 7
Формат : UTF-8
Идентификатор кодека : S_TEXT/UTF8
Идентификатор кодека/Информация : UTF-8 Plain Text
Заголовок : Full
Язык : Ukrainian
Default : Нет
Forced : Нет
Текст #3
Идентификатор : 8
Формат : UTF-8
Идентификатор кодека : S_TEXT/UTF8
Идентификатор кодека/Информация : UTF-8 Plain Text
Заголовок : Full
Язык : English
Default : Нет
Forced : Нет
Меню
00:00:00.000 : en:00:00:00.000
00:03:27.958 : en:00:03:27.958
00:06:57.834 : en:00:06:57.834
00:08:19.541 : en:00:08:19.541
00:11:58.593 : en:00:11:58.593
00:15:01.484 : en:00:15:01.484
00:18:13.509 : en:00:18:13.509
00:19:56.737 : en:00:19:56.737
00:21:43.093 : en:00:21:43.093
00:23:53.849 : en:00:23:53.849
00:28:34.880 : en:00:28:34.880
00:31:32.516 : en:00:31:32.516
00:34:39.077 : en:00:34:39.077
00:40:51.199 : en:00:40:51.199
00:44:37.383 : en:00:44:37.383
00:46:57.815 : en:00:46:57.815
00:49:19.707 : en:00:49:19.707
00:54:13.333 : en:00:54:13.333
01:00:06.686 : en:01:00:06.686
01:03:16.209 : en:01:03:16.209
01:06:08.715 : en:01:06:08.715
01:12:56.998 : en:01:12:56.998
01:15:13.008 : en:01:15:13.008
01:19:54.456 : en:01:19:54.456
01:21:56.120 : en:01:21:56.120
01:27:24.156 : en:01:27:24.156
01:28:12.537 : en:01:28:12.537
01:33:28.561 : en:01:33:28.561
01:39:34.510 : en:01:39:34.510
01:46:26.714 : en:01:46:26.714
01:50:46.515 : en:01:50:46.515
01:56:40.619 : en:01:56:40.619
01:59:06.097 : en:01:59:06.097
02:02:23.127 : en:02:02:23.127
02:05:35.069 : en:02:05:35.069
02:12:30.818 : en:02:12:30.818
02:16:12.790 : en:02:16:12.790
02:19:56.930 : en:02:19:56.930
02:22:42.304 : en:02:22:42.304
02:24:15.647 : en:02:24:15.647
Скриншоты
Скачать

Скачать торрент!

Как скачивать? · Что такое торрент? · Рейтинг и ограничения

Сайт не распространяет и не хранит электронные версии произведений, а лишь предоставляет доступ к создаваемому пользователями каталогу ссылок на торрент-файлы, которые содержат только списки хеш-сумм

[Профиль] [ЛС]
Показать сообщения:    
Ответить на тему

Текущее время: Сегодня 10:04

Часовой пояс: GMT + 4



Вы не можете начинать темы
Вы не можете отвечать на сообщения
Вы не можете редактировать свои сообщения
Вы не можете удалять свои сообщения
Вы не можете голосовать в опросах
Вы не можете прикреплять файлы к сообщениям
Вы не можете скачивать файлы