Гойя, или Тяжкий путь познания (Конрад Вольф / Konrad Wolf) [1971, Исторический (биографический), драма, DVDRip, AVC]

Ответить на тему
 
Автор Сообщение

user ®

Стаж: 7 лет 7 месяцев

Сообщений: 20008

Пост Пост: #1 от 23-Дек-2014 04:35

[Цитировать]

Гойя, или Тяжкий путь познания
Жанр: Исторический (биографический), драма
Год выпуска: 1971
Продолжительность: 02:08:00
Режиссёр: Конрад Вольф / Konrad Wolf
В ролях: Донатас Банионис, Верико Анджапаридзе, Игорь Васильев, Арно Вишневски, Игорь Дмитриев, Михаил Козаков, Татьяна Лолова, Георгий Тейх, Людмила Чурсина, Ариадна Шенгелая, Петр Слабаков

Описание: Историко-биографический фильм о жизни испанского живописца, графика и гравера Франсиско Хосе де Гойя. О трудном пути восхождения человека к познанию жизни и ее смысла. По одноименному роману Леона Фейхтвангера. Режиссер и сценарист попробовали извлечь из романа как раз то, что в нем не так уж откровенно кинематографично, то, что плохой кинематограф упрощает (если не вульгаризирует) и перед чем неплохой, как правило, пасует. Конрад Вольф и Анжел Вагенштайн предложили историю художника Гойи, отобрав факты творчества и жизни великого испанца с точки зрения "большого времени искусства" (выражение М Бахтина), то есть отбросили не имеющее отношения к картинам и листам Гойи, не подготовившее их, на них не ответившее, прошедшее мимо художника, рядом с ним, его не затронув....
Доп. информация: Релиз: , pmv
Выпущено: Совместное производство киностудий "DEFA", ГДР, "Ленфильм", СССР при участии Студии художественных фильмов в Софии, БОЛГАРИЯ, "Босна-фильм", ЮГОСЛАВИЯ
Русская дорожка взята из раздачи на рутрекере (спасибо Blade1) и отредактирована для лучшей разборчивости звука. Исходный DVD9 взят с Синематика.
Добавлены английские отключаемые субтитры (для глухих и не знающих русского и немецкого).

Сэмпл: http://multi-up.com/1021955
Качество видео: DVDRip
Формат видео: MKV
Видео: 720@1024 х456 pixels* V_MPEG4/ISO/AVC*aspect ratio : 2.25:1*25.000 fps* x264*1 750 Kbps
Аудио: #1: 48.0 KHz*2 channels*AC-3*Bit rate : 192 Kbps - Русский дубляж
#2: 48.0 KHz*6 channels*AC-3*Bit rate : 448 Kbps - Немецкий
MediaInfo
Complete name : Гойя или тяжкий путь познания (1971).mkv
Format : Matroska
Format version : Version 4 / Version 2
File size : 2.15 GiB
Duration : 2h 8mn
Overall bit rate : 2 393 Kbps
DURATION : 02:08:14.159000000
NUMBER_OF_FRAMES : 1089
NUMBER_OF_BYTES : 43730
Video
ID : 1
Format : AVC
Format/Info : Advanced Video Codec
Format profile : High@L4.0
Format settings, CABAC : Yes
Format settings, ReFrames : 16 frames
Codec ID : V_MPEG4/ISO/AVC
Duration : 2h 8mn
Bit rate : 1 750 Kbps
Width : 720@1024 pixels
Height : 456 pixels
Display aspect ratio : 2.25:1
Original display aspect ratio : 1.579
Frame rate mode : Constant
Frame rate : 25.000 fps
Color space : YUV
Chroma subsampling : 4:2:0
Bit depth : 8 bits
Scan type : Progressive
Bits/(Pixel*Frame) : 0.213
Stream size : 1.53 GiB (71%)
Writing library : x264 core 130 r2273 b3065e6
Encoding settings : cabac=1 / ref=16 / deblock=1:0:0 / analyse=0x3:0x133 / me=umh / subme=10 / psy=1 / psy_rd=1.00:0.00 / mixed_ref=1 / me_range=24 / chroma_me=1 / trellis=2 / 8x8dct=1 / cqm=0 / deadzone=21,11 / fast_pskip=1 / chroma_qp_offset=-2 / threads=18 / lookahead_threads=3 / sliced_threads=0 / nr=0 / decimate=1 / interlaced=0 / bluray_compat=0 / constrained_intra=0 / bframes=8 / b_pyramid=2 / b_adapt=2 / b_bias=0 / direct=3 / weightb=1 / open_gop=0 / weightp=2 / keyint=250 / keyint_min=25 / scenecut=40 / intra_refresh=0 / rc_lookahead=60 / rc=2pass / mbtree=1 / bitrate=1750 / ratetol=1.0 / qcomp=0.60 / qpmin=0 / qpmax=69 / qpstep=4 / cplxblur=20.0 / qblur=0.5 / ip_ratio=1.40 / aq=1:1.00
Default : Yes
Forced : No
Audio #1
ID : 2
Format : AC-3
Format/Info : Audio Coding 3
Mode extension : CM (complete main)
Format settings, Endianness : Big
Codec ID : A_AC3
Duration : 2h 8mn
Bit rate mode : Constant
Bit rate : 192 Kbps
Channel(s) : 2 channels
Channel positions : Front: L R
Sampling rate : 48.0 KHz
Bit depth : 16 bits
Compression mode : Lossy
Stream size : 177 MiB (8%)
Default : Yes
Forced : No
Audio #2
ID : 3
Format : AC-3
Format/Info : Audio Coding 3
Mode extension : CM (complete main)
Format settings, Endianness : Big
Codec ID : A_AC3
Duration : 2h 8mn
Bit rate mode : Constant
Bit rate : 448 Kbps
Channel(s) : 6 channels
Channel positions : Front: L C R, Side: L R, LFE
Sampling rate : 48.0 KHz
Bit depth : 16 bits
Compression mode : Lossy
Stream size : 412 MiB (19%)
Default : No
Forced : No
Text
ID : 4
Format : UTF-8
Codec ID : S_TEXT/UTF8
Codec ID/Info : UTF-8 Plain Text
Default : Yes
Forced : No
Скриншот c названием фильма Скриншоты
Скачать

Скачать торрент!

Как скачивать? · Что такое торрент? · Рейтинг и ограничения

Сайт не распространяет и не хранит электронные версии произведений, а лишь предоставляет доступ к создаваемому пользователями каталогу ссылок на торрент-файлы, которые содержат только списки хеш-сумм

[Профиль] [ЛС]
Показать сообщения:    
Ответить на тему

Текущее время: Сегодня 08:38

Часовой пояс: GMT + 4



Вы не можете начинать темы
Вы не можете отвечать на сообщения
Вы не можете редактировать свои сообщения
Вы не можете удалять свои сообщения
Вы не можете голосовать в опросах
Вы не можете прикреплять файлы к сообщениям
Вы не можете скачивать файлы