Занесло / Redirected (Эмилис Веливис / Emilis Welyvis) [2014, Великобритания, Литва, боевик, триллер, драма, комедия, WEB-DLRip] VO (R.A.I.M) + Original Eng

Ответить на тему
 
Автор Сообщение

user ®

Стаж: 7 лет 7 месяцев

Сообщений: 20008

Пост Пост: #1 от 23-Дек-2014 04:35

[Цитировать]

Занесло / Redirected- -Страна: Великобритания, Литва / Kinokultas, Wellington Films
Жанр: боевик, триллер, драма, комедия
Год выпуска: 2014
Продолжительность: 01:39:03
Перевод: Одноголосый закадровый R.A.I.M
Cубтитры: нет
Оригинальная аудиодорожка: английский-Режиссер: Эмилис Веливис / Emilis Welyvis-В ролях: Винни Джонс, Скот Уильямс, Гил Дарнелл, Энтони Страхан, Андрюс Жюраускас, Витаутас Шапранаускас, Артур Смольянинов, Вита Сяусюнайте-Описание: Картина повествует о необычайных приключениях в Литве четырёх англичан — Майкла, Джонни, Бена и Тима. После удачного налёта в Лондоне на нелегальное казино, «славная четвёрка» садится в самолет, летящий в Малайзию. Кажется, все идёт по плану. Но… Никто не мог предусмотреть проделок вулкана Эйяфьядлайёкюдля, извержение которого вынудило самолет с англичанами сесть в Вильнюсе. Мало того, помимо местных разборок и приключений на все части тела, друзьям приходится спасаться от жаждущего мести владельца ограбленного казино.-Доп. информация: http://www.kinopoisk.ru/film/693168/
http://www.imdb.com/title/tt2275946/-Сэмпл: http://sendfile.su/1065068-Качество видео: WEB-DLRip
Формат видео: AVI
Видео: 720x304 (2.37:1), 23.976 fps, XviD MPEG-4 ~1593 kbps avg, 0.30 bit/pixel
Аудио: MP3, 48.0 KHz, 2 ch, 128 Kbps, CBR
Аудио 2: AC-3, 48.0 KHz, 6 ch, 384 Kbps, CBR / English
MediaInfo
D:\Torrents\Zaneslo.2014.WEB-DLRip.L1.avi.avi
General
Complete name : D:\Torrents\Zaneslo.2014.WEB-DLRip.L1.avi.avi
Format : AVI
Format/Info : Audio Video Interleave
File size : 1.47 GiB
Duration : 1h 39mn
Overall bit rate : 2 120 Kbps
Writing application : VirtualDubMod 1.5.10.2 (build 2542/release)
Writing library : VirtualDubMod build 2542/release
Video #0
ID : 0
Format : MPEG-4 Visual
Format profile : Simple@L5
Format settings, BVOP : No
Format settings, QPel : No
Format settings, GMC : No warppoints
Format settings, Matrix : Default (H.263)
Codec ID : XVID
Codec ID/Hint : XviD
Duration : 1h 39mn
Bit rate : 1 594 Kbps
Width : 720 pixels
Height : 304 pixels
Display aspect ratio : 2.40:1
Frame rate : 23.976 fps
Color space : YUV
Chroma subsampling : 4:2:0
Bit depth : 8 bits
Scan type : Progressive
Compression mode : Lossy
Bits/(Pixel*Frame) : 0.304
Stream size : 1.10 GiB (75%)
Writing library : Lavc56.13.100
Audio #1
ID : 1
Format : MPEG Audio
Format version : Version 1
Format profile : Layer 3
Mode : Joint stereo
Mode extension : MS Stereo
Codec ID : 55
Codec ID/Hint : MP3
Duration : 1h 39mn
Bit rate mode : Constant
Bit rate : 128 Kbps
Channel count : 2 channels
Sampling rate : 48.0 KHz
Compression mode : Lossy
Stream size : 90.7 MiB (6%)
Alignment : Aligned on interleaves
Interleave, duration : 42 ms (1.00 video frame)
Interleave, preload duration : 504 ms
Writing library : LAME3.99r
Encoding settings : -m j -V 4 -q 3 -lowpass 17 -b 128
Audio #2
ID : 2
Format : AC-3
Format/Info : Audio Coding 3
Mode extension : CM (complete main)
Format settings, Endianness : Big
Codec ID : 2000
Duration : 1h 39mn
Bit rate mode : Constant
Bit rate : 384 Kbps
Channel count : 6 channels
Channel positions : Front: L C R, Side: L R, LFE
Sampling rate : 48.0 KHz
Bit depth : 16 bits
Compression mode : Lossy
Stream size : 272 MiB (18%)
Alignment : Aligned on interleaves
Interleave, duration : 42 ms (1.00 video frame)
Interleave, preload duration : 512 ms
Скриншот c названием фильма Скриншоты
Скачать

Скачать торрент!

Как скачивать? · Что такое торрент? · Рейтинг и ограничения

Сайт не распространяет и не хранит электронные версии произведений, а лишь предоставляет доступ к создаваемому пользователями каталогу ссылок на торрент-файлы, которые содержат только списки хеш-сумм

[Профиль] [ЛС]
Показать сообщения:    
Ответить на тему

Текущее время: Сегодня 02:25

Часовой пояс: GMT + 4



Вы не можете начинать темы
Вы не можете отвечать на сообщения
Вы не можете редактировать свои сообщения
Вы не можете удалять свои сообщения
Вы не можете голосовать в опросах
Вы не можете прикреплять файлы к сообщениям
Вы не можете скачивать файлы